星际牛仔 [简繁中字] (2017) 第一季全10集/4K高清版本下载

[复制链接]

194

主题

217

帖子

2109

积分

版主

Rank: 7Rank: 7Rank: 7

积分
2109
 楼主| 发表于 2022-7-24 18:07:04 | 显示全部楼层 |阅读模式
本帖最后由 美剧小虾 于 2022-7-24 18:09 编辑

p2708293111_副本.png

◎标  题 星际牛仔
◎译  名 星际牛仔真人版
◎片  名 Cowboy Bebop
◎年  代 2021
◎产  地 美国
◎类  别 动作 / 科幻 / 冒险
◎语  言 英语
◎上映日期 2021-11-19(美国)
◎IMDb评分 6.7/10 from 38350 users
◎IMDb链接 https://www.imdb.com/title/tt1267295/
◎豆瓣评分 5.3/10 from 3267 users
◎豆瓣链接 https://movie.douban.com/subject/3157581/
◎片  长 38~60分钟
◎导  演 迈克尔·卡特曼 Michael Katleman /  亚历克斯·加西亚·洛佩斯 Alex Garcia Lopez
◎编  剧 矢立肇 Hajime Yatate / 克里斯托弗·约斯特 Christopher Yost / 卡尔·塔罗·格林菲尔德 Karl Taro Greenfeld
◎演  员 约翰·赵 John Cho
       穆斯塔法·沙基尔 Mustafa Shakir
       阿历克斯·哈赛尔 Alex Hassell
       丹妮艾拉·皮内达 Daniella Pineda
       埃莲娜·萨汀 Elena Satine
       布莱辛默克戈豪 Blessing Mokgohloa
       露西·柯里 Lucy Currey
       瑞切尔·豪斯 Rachel House
       吉欧夫·斯图兹 Geoff Stults
       塔马拉·图尼 Tamara Tunie
       侯宣德 Hoa Xuande
       罗德尼·库克 Rodney Cook
       卡利·内勒 Cali Nelle
       杰伊·保尔森 Jay Paulson
       梅根·辛德 Megan Hind
       艾登·珀金斯 Eden Perkins

◎简  介

  《星际牛仔》是部太空西部剧集,动作场面精彩刺激,讲述三位化名为“牛仔”的赏金猎人力图摆脱过去的故事。性格南辕北辙,但同样凶狠要命的三人分别是史派克·史比格(约翰·赵 饰)、杰特·布莱克(慕斯塔法·沙奇尔 饰)和菲·瓦伦坦(丹妮拉·皮内达 饰)。他们结为敢打敢拼、嘴巴超贱的团队,只要价钱谈妥,他们随时可以上路追捕太阳系最危险的罪犯。但即便一路靠著拳打脚踢、耍嘴皮子,挺过一堆混战,大伙终究得面对自己的过去。

Video
ID : 1
Format : HEVC
Format/Info : High Efficiency Video Coding
Format profile : Main 10@L5@Main
HDR format : SMPTE ST 2086, HDR10 compatible
Codec ID : V_MPEGH/ISO/HEVC
Duration : 50 min 21 s
Bit rate : 15.4 Mb/s
Width : 3 840 pixels
Height : 2 160 pixels
Display aspect ratio : 16:9
Frame rate mode : Constant
Frame rate : 23.976 (24000/1001) FPS
Color space : YUV
Chroma subsampling : 4:2:0 (Type 2)
Bit depth : 10 bits
Bits/(Pixel*Frame) : 0.078
Stream size : 5.42 GiB (95%)
Default : Yes
Forced : No
Color range : Limited
Color primaries : BT.2020
Transfer characteristics : PQ
Matrix coefficients : BT.2020 non-constant
Mastering display color primaries : Display P3
Mastering display luminance : min: 0.0001 cd/m2, max: 1000 cd/m2
Maximum Content Light Level : 860 cd/m2
Maximum Frame-Average Light Level : 183 cd/m2

Audio
ID : 2
Format : E-AC-3 JOC
Format/Info : Enhanced AC-3 with Joint Object Coding
Commercial name : Dolby Digital Plus with Dolby Atmos
Codec ID : A_EAC3
Duration : 51 min 49 s
Bit rate mode : Constant
Bit rate : 768 kb/s
Channel(s) : 6 channels
Channel layout : L R C LFE Ls Rs
Sampling rate : 48.0 kHz
Frame rate : 31.250 FPS (1536 SPF)
Compression mode : Lossy
Stream size : 285 MiB (5%)
Language : English
Service kind : Complete Main
Default : Yes
Forced : No
Complexity index : 16
Number of dynamic objects : 15
Bed channel count : 1 channel
Bed channel configuration : LFE

Text #1
ID : 3
Format : UTF-8
Codec ID : S_TEXT/UTF8
Codec ID/Info : UTF-8 Plain Text
Duration : 48 min 33 s
Bit rate : 50 b/s
Frame rate : 0.224 FPS
Count of elements : 652
Stream size : 18.1 KiB (0%)
Title : [CC]
Language : English
Default : Yes
Forced : No

Text #2
ID : 4
Format : UTF-8
Codec ID : S_TEXT/UTF8
Codec ID/Info : UTF-8 Plain Text
Duration : 50 min 5 s
Bit rate : 68 b/s
Frame rate : 0.176 FPS
Count of elements : 530
Stream size : 25.2 KiB (0%)
Language : Arabic
Default : No
Forced : No

Text #3
ID : 5
Format : UTF-8
Codec ID : S_TEXT/UTF8
Codec ID/Info : UTF-8 Plain Text
Duration : 50 min 5 s
Bit rate : 38 b/s
Frame rate : 0.176 FPS
Count of elements : 529
Stream size : 14.0 KiB (0%)
Language : Czech
Default : No
Forced : No

Text #4
ID : 6
Format : UTF-8
Codec ID : S_TEXT/UTF8
Codec ID/Info : UTF-8 Plain Text
Duration : 50 min 5 s
Bit rate : 38 b/s
Frame rate : 0.175 FPS
Count of elements : 526
Stream size : 14.0 KiB (0%)
Language : Danish
Default : No
Forced : No

Text #5
ID : 7
Format : UTF-8
Codec ID : S_TEXT/UTF8
Codec ID/Info : UTF-8 Plain Text
Duration : 50 min 5 s
Bit rate : 38 b/s
Frame rate : 0.175 FPS
Count of elements : 525
Stream size : 14.1 KiB (0%)
Language : German
Default : No
Forced : No

Text #6
ID : 8
Format : UTF-8
Codec ID : S_TEXT/UTF8
Codec ID/Info : UTF-8 Plain Text
Duration : 50 min 5 s
Bit rate : 65 b/s
Frame rate : 0.176 FPS
Count of elements : 529
Stream size : 24.1 KiB (0%)
Language : Greek
Default : No
Forced : No

Text #7
ID : 9
Format : UTF-8
Codec ID : S_TEXT/UTF8
Codec ID/Info : UTF-8 Plain Text
Duration : 50 min 5 s
Bit rate : 39 b/s
Frame rate : 0.176 FPS
Count of elements : 528
Stream size : 14.6 KiB (0%)
Language : Spanish
Default : No
Forced : No

Text #8
ID : 10
Format : UTF-8
Codec ID : S_TEXT/UTF8
Codec ID/Info : UTF-8 Plain Text
Duration : 50 min 5 s
Bit rate : 38 b/s
Frame rate : 0.175 FPS
Count of elements : 527
Stream size : 14.0 KiB (0%)
Title : European
Language : Spanish
Default : No
Forced : No

Text #9
ID : 11
Format : UTF-8
Codec ID : S_TEXT/UTF8
Codec ID/Info : UTF-8 Plain Text
Duration : 50 min 5 s
Bit rate : 35 b/s
Frame rate : 0.175 FPS
Count of elements : 526
Stream size : 13.0 KiB (0%)
Language : Finnish
Default : No
Forced : No

Text #10
ID : 12
Format : UTF-8
Codec ID : S_TEXT/UTF8
Codec ID/Info : UTF-8 Plain Text
Duration : 50 min 5 s
Bit rate : 39 b/s
Frame rate : 0.175 FPS
Count of elements : 525
Stream size : 14.5 KiB (0%)
Language : French
Default : No
Forced : No

Text #11
ID : 13
Format : UTF-8
Codec ID : S_TEXT/UTF8
Codec ID/Info : UTF-8 Plain Text
Duration : 50 min 5 s
Bit rate : 58 b/s
Frame rate : 0.176 FPS
Count of elements : 530
Stream size : 21.4 KiB (0%)
Language : Hebrew
Default : No
Forced : No

Text #12
ID : 14
Format : UTF-8
Codec ID : S_TEXT/UTF8
Codec ID/Info : UTF-8 Plain Text
Duration : 50 min 5 s
Bit rate : 34 b/s
Frame rate : 0.176 FPS
Count of elements : 528
Stream size : 12.8 KiB (0%)
Language : Croatian
Default : No
Forced : No

Text #13
ID : 15
Format : UTF-8
Codec ID : S_TEXT/UTF8
Codec ID/Info : UTF-8 Plain Text
Duration : 50 min 5 s
Bit rate : 38 b/s
Frame rate : 0.176 FPS
Count of elements : 529
Stream size : 14.0 KiB (0%)
Language : Hungarian
Default : No
Forced : No

Text #14
ID : 16
Format : UTF-8
Codec ID : S_TEXT/UTF8
Codec ID/Info : UTF-8 Plain Text
Duration : 50 min 5 s
Bit rate : 38 b/s
Frame rate : 0.176 FPS
Count of elements : 529
Stream size : 14.3 KiB (0%)
Language : Indonesian
Default : No
Forced : No

Text #15
ID : 17
Format : UTF-8
Codec ID : S_TEXT/UTF8
Codec ID/Info : UTF-8 Plain Text
Duration : 50 min 5 s
Bit rate : 37 b/s
Frame rate : 0.175 FPS
Count of elements : 527
Stream size : 13.9 KiB (0%)
Language : Italian
Default : No
Forced : No

Text #16
ID : 18
Format : UTF-8
Codec ID : S_TEXT/UTF8
Codec ID/Info : UTF-8 Plain Text
Duration : 50 min 5 s
Bit rate : 40 b/s
Frame rate : 0.178 FPS
Count of elements : 535
Stream size : 14.7 KiB (0%)
Language : Japanese
Default : No
Forced : No

Text #17
ID : 19
Format : UTF-8
Codec ID : S_TEXT/UTF8
Codec ID/Info : UTF-8 Plain Text
Duration : 48 min 39 s
Bit rate : 49 b/s
Frame rate : 0.182 FPS
Count of elements : 530
Stream size : 17.5 KiB (0%)
Language : Korean
Default : No
Forced : No

Text #18
ID : 20
Format : UTF-8
Codec ID : S_TEXT/UTF8
Codec ID/Info : UTF-8 Plain Text
Duration : 50 min 5 s
Bit rate : 36 b/s
Frame rate : 0.176 FPS
Count of elements : 529
Stream size : 13.5 KiB (0%)
Language : Malay
Default : No
Forced : No

Text #19
ID : 21
Format : UTF-8
Codec ID : S_TEXT/UTF8
Codec ID/Info : UTF-8 Plain Text
Duration : 50 min 5 s
Bit rate : 36 b/s
Frame rate : 0.176 FPS
Count of elements : 529
Stream size : 13.6 KiB (0%)
Language : Norwegian Bokmal
Default : No
Forced : No

Text #20
ID : 22
Format : UTF-8
Codec ID : S_TEXT/UTF8
Codec ID/Info : UTF-8 Plain Text
Duration : 50 min 5 s
Bit rate : 37 b/s
Frame rate : 0.173 FPS
Count of elements : 520
Stream size : 13.8 KiB (0%)
Language : Dutch
Default : No
Forced : No

Text #21
ID : 23
Format : UTF-8
Codec ID : S_TEXT/UTF8
Codec ID/Info : UTF-8 Plain Text
Duration : 50 min 5 s
Bit rate : 36 b/s
Frame rate : 0.175 FPS
Count of elements : 527
Stream size : 13.5 KiB (0%)
Language : Polish
Default : No
Forced : No

Text #22
ID : 24
Format : UTF-8
Codec ID : S_TEXT/UTF8
Codec ID/Info : UTF-8 Plain Text
Duration : 50 min 5 s
Bit rate : 37 b/s
Frame rate : 0.176 FPS
Count of elements : 528
Stream size : 13.8 KiB (0%)
Language : Portuguese
Default : No
Forced : No

Text #23
ID : 25
Format : UTF-8
Codec ID : S_TEXT/UTF8
Codec ID/Info : UTF-8 Plain Text
Duration : 50 min 5 s
Bit rate : 38 b/s
Frame rate : 0.176 FPS
Count of elements : 530
Stream size : 14.1 KiB (0%)
Title : Brazilian
Language : Portuguese
Default : No
Forced : No

Text #24
ID : 26
Format : UTF-8
Codec ID : S_TEXT/UTF8
Codec ID/Info : UTF-8 Plain Text
Duration : 50 min 5 s
Bit rate : 44 b/s
Frame rate : 0.176 FPS
Count of elements : 529
Stream size : 16.2 KiB (0%)
Language : Romanian
Default : No
Forced : No

Text #25
ID : 27
Format : UTF-8
Codec ID : S_TEXT/UTF8
Codec ID/Info : UTF-8 Plain Text
Duration : 50 min 5 s
Bit rate : 64 b/s
Frame rate : 0.176 FPS
Count of elements : 528
Stream size : 23.6 KiB (0%)
Language : Russian
Default : No
Forced : No

Text #26
ID : 28
Format : UTF-8
Codec ID : S_TEXT/UTF8
Codec ID/Info : UTF-8 Plain Text
Duration : 50 min 5 s
Bit rate : 36 b/s
Frame rate : 0.175 FPS
Count of elements : 526
Stream size : 13.4 KiB (0%)
Language : Swedish
Default : No
Forced : No

Text #27
ID : 29
Format : UTF-8
Codec ID : S_TEXT/UTF8
Codec ID/Info : UTF-8 Plain Text
Duration : 50 min 5 s
Bit rate : 99 b/s
Frame rate : 0.176 FPS
Count of elements : 530
Stream size : 36.6 KiB (0%)
Language : Thai
Default : No
Forced : No

Text #28
ID : 30
Format : UTF-8
Codec ID : S_TEXT/UTF8
Codec ID/Info : UTF-8 Plain Text
Duration : 50 min 5 s
Bit rate : 37 b/s
Frame rate : 0.176 FPS
Count of elements : 528
Stream size : 13.7 KiB (0%)
Language : Turkish
Default : No
Forced : No

Text #29
ID : 31
Format : UTF-8
Codec ID : S_TEXT/UTF8
Codec ID/Info : UTF-8 Plain Text
Duration : 48 min 39 s
Bit rate : 68 b/s
Frame rate : 0.181 FPS
Count of elements : 529
Stream size : 24.4 KiB (0%)
Language : Ukrainian
Default : No
Forced : No

Text #30
ID : 32
Format : UTF-8
Codec ID : S_TEXT/UTF8
Codec ID/Info : UTF-8 Plain Text
Duration : 50 min 5 s
Bit rate : 54 b/s
Frame rate : 0.170 FPS
Count of elements : 511
Stream size : 20.1 KiB (0%)
Language : Vietnamese
Default : No
Forced : No

Text #31
ID : 33
Format : UTF-8
Codec ID : S_TEXT/UTF8
Codec ID/Info : UTF-8 Plain Text
Duration : 50 min 5 s
Bit rate : 41 b/s
Frame rate : 0.176 FPS
Count of elements : 530
Stream size : 15.2 KiB (0%)
Title : 中文(简体)
Language : 中文
Default : No
Forced : No

Text #32
ID : 34
Format : UTF-8
Codec ID : S_TEXT/UTF8
Codec ID/Info : UTF-8 Plain Text
Duration : 50 min 5 s
Bit rate : 39 b/s
Frame rate : 0.176 FPS
Count of elements : 530
Stream size : 14.6 KiB (0%)
Title : 中文(繁体)
Language : 中文
Default : No
Forced : No

下载地址:

游客,如果您要查看本帖隐藏内容请回复












上一篇:铁拳[简繁中字]/Iron Fist (2018) 第一至二季全/4K高清版本下载
下一篇:亚森·罗宾 [简繁中字] (2021) 第一季全5集/4K高清版本下载
回复

使用道具 举报

0

主题

1348

帖子

4072

积分

4K家园VIP

Rank: 9Rank: 9Rank: 9

积分
4072
发表于 2022-7-24 18:07:16 | 显示全部楼层
打酱油的人拉,回复下赚取积分
回复 支持 反对

使用道具 举报

0

主题

8337

帖子

1万

积分

4K家园VIP

Rank: 9Rank: 9Rank: 9

积分
19388
发表于 2022-7-25 08:54:24 | 显示全部楼层
太好啦&萬分感謝版主的無私發佈分享%
回复 支持 反对

使用道具 举报

1

主题

1375

帖子

3979

积分

4K家园VIP

Rank: 9Rank: 9Rank: 9

积分
3979
发表于 2022-7-28 03:49:47 | 显示全部楼层
占坑编辑ing
回复 支持 反对

使用道具 举报

4

主题

1444

帖子

4176

积分

4K家园VIP

Rank: 9Rank: 9Rank: 9

积分
4176
发表于 2022-7-30 08:32:59 来自手机 | 显示全部楼层
没明白
回复 支持 反对

使用道具 举报

0

主题

1661

帖子

4613

积分

4K家园VIP

Rank: 9Rank: 9Rank: 9

积分
4613
发表于 2022-8-2 17:45:38 | 显示全部楼层
传说中的沙发???哇卡卡
回复 支持 反对

使用道具 举报

2

主题

1465

帖子

4231

积分

4K家园VIP

Rank: 9Rank: 9Rank: 9

积分
4231
发表于 2022-8-3 02:27:07 来自手机 | 显示全部楼层
佩服佩服!
回复 支持 反对

使用道具 举报

您需要登录后才可以回帖 登录 | 立即注册

本版积分规则

精彩图文
Archiver|手机版|TAG|Sitemap|新帖|专题|联系我们:邮箱: 4kjia.com@gmail.com   

4k家园   ©2019