亚森·罗宾 [简繁中字] (2021) 第一季全5集/4K高清版本下载

[复制链接]

194

主题

217

帖子

2109

积分

版主

Rank: 7Rank: 7Rank: 7

积分
2109
 楼主| 发表于 2022-7-24 18:16:51 | 显示全部楼层 |阅读模式
p2627475199_副本.jpg

◎译  名 亚森·罗宾/亚森·罗苹(台)/怪盗罗苹(港)/绅士怪盗/罗平
◎片  名 Arsene Lupin
◎年  代 2020
◎产  地 美国
◎类  别 剧情/悬疑/犯罪
◎语  言 英语
◎上映日期 2021-01-08(法国)
◎IMDb评分 7.5/10 from 102799 users
◎IMDb链接 https://www.imdb.com/title/tt2531336/
◎豆瓣评分 7.9/10 from 10655 users
◎豆瓣链接 https://douban.com/subject/20444967/
◎集  数 5
◎片  长 50
◎导  演 卢德维克·伯尔纳 Ludovic Bernard / 路易斯·莱特里尔 Louis Leterrier
◎主  演 文森特·隆迪兹 Vincent Londez
       奥玛·希 Omar Sy
       埃尔韦·皮埃尔 Hervé Pierre
       妮可·加西亚 Nicole Garcia
       克洛蒂尔德·埃斯姆 Clotilde Hesme
       露德温·塞尼耶 Ludivine Sagnier


◎简  介


  在阿桑·迪奥普十几岁的时候,他的父亲因含冤入狱而离开人世,此后他的生活发生了翻天覆地的变化。25年后,阿桑受到“怪盗绅士亚森·罗宾”的启发,决心为父报仇。
Video
ID : 1
Format : HEVC
Format/Info : High Efficiency Video Coding
Format profile : Main 10@L5@Main
HDR format : Dolby Vision, Version 1.0, dvhe.08.07, BL+RPU, HDR10 compatible / SMPTE ST 2086, HDR10 compatible
Codec ID : V_MPEGH/ISO/HEVC
Duration : 51 min 21 s
Bit rate : 15.6 Mb/s
Width : 3 840 pixels
Height : 2 160 pixels
Display aspect ratio : 16:9
Frame rate mode : Constant
Frame rate : 25.000 FPS
Color space : YUV
Chroma subsampling : 4:2:0 (Type 2)
Bit depth : 10 bits
Bits/(Pixel*Frame) : 0.075
Stream size : 5.61 GiB (92%)
Default : Yes
Forced : No
Color range : Limited
Color primaries : BT.2020
Transfer characteristics : PQ
Matrix coefficients : BT.2020 non-constant
Mastering display color primaries : Display P3
Mastering display luminance : min: 0.0001 cd/m2, max: 1000 cd/m2
Maximum Content Light Level : 960 cd/m2
Maximum Frame-Average Light Level : 145 cd/m2

Audio #1
ID : 2
Format : E-AC-3
Format/Info : Enhanced AC-3
Commercial name : Dolby Digital Plus
Codec ID : A_EAC3
Duration : 53 min 10 s
Bit rate mode : Constant
Bit rate : 640 kb/s
Channel(s) : 6 channels
Channel layout : L R C LFE Ls Rs
Sampling rate : 48.0 kHz
Frame rate : 31.250 FPS (1536 SPF)
Compression mode : Lossy
Stream size : 243 MiB (4%)
Language : French
Service kind : Complete Main
Default : Yes
Forced : No

Audio #2
ID : 3
Format : E-AC-3
Format/Info : Enhanced AC-3
Commercial name : Dolby Digital Plus
Codec ID : A_EAC3
Duration : 53 min 10 s
Bit rate mode : Constant
Bit rate : 640 kb/s
Channel(s) : 6 channels
Channel layout : L R C LFE Ls Rs
Sampling rate : 48.0 kHz
Frame rate : 31.250 FPS (1536 SPF)
Compression mode : Lossy
Stream size : 243 MiB (4%)
Language : English
Service kind : Complete Main
Default : Yes
Forced : No

Text #1
ID : 4
Format : UTF-8
Codec ID : S_TEXT/UTF8
Codec ID/Info : UTF-8 Plain Text
Duration : 49 min 37 s
Bit rate : 38 b/s
Frame rate : 0.180 FPS
Count of elements : 535
Stream size : 14.1 KiB (0%)
Language : English
Default : Yes
Forced : No

Text #2
ID : 5
Format : UTF-8
Codec ID : S_TEXT/UTF8
Codec ID/Info : UTF-8 Plain Text
Duration : 49 min 37 s
Bit rate : 53 b/s
Frame rate : 0.223 FPS
Count of elements : 663
Stream size : 19.3 KiB (0%)
Title : [CC]
Language : English
Default : No
Forced : No

Text #3
ID : 6
Format : UTF-8
Codec ID : S_TEXT/UTF8
Codec ID/Info : UTF-8 Plain Text
Duration : 51 min 10 s
Bit rate : 67 b/s
Frame rate : 0.182 FPS
Count of elements : 560
Stream size : 25.4 KiB (0%)
Language : Arabic
Default : No
Forced : No

Text #4
ID : 7
Format : UTF-8
Codec ID : S_TEXT/UTF8
Codec ID/Info : UTF-8 Plain Text
Duration : 51 min 10 s
Bit rate : 38 b/s
Frame rate : 0.179 FPS
Count of elements : 550
Stream size : 14.6 KiB (0%)
Language : Czech
Default : No
Forced : No

Text #5
ID : 8
Format : UTF-8
Codec ID : S_TEXT/UTF8
Codec ID/Info : UTF-8 Plain Text
Duration : 51 min 10 s
Bit rate : 35 b/s
Frame rate : 0.163 FPS
Count of elements : 499
Stream size : 13.1 KiB (0%)
Language : Danish
Default : No
Forced : No

Text #6
ID : 9
Format : UTF-8
Codec ID : S_TEXT/UTF8
Codec ID/Info : UTF-8 Plain Text
Duration : 51 min 10 s
Bit rate : 38 b/s
Frame rate : 0.169 FPS
Count of elements : 520
Stream size : 14.4 KiB (0%)
Language : German
Default : No
Forced : No

Text #7
ID : 10
Format : UTF-8
Codec ID : S_TEXT/UTF8
Codec ID/Info : UTF-8 Plain Text
Duration : 51 min 10 s
Bit rate : 62 b/s
Frame rate : 0.176 FPS
Count of elements : 541
Stream size : 23.3 KiB (0%)
Language : Greek
Default : No
Forced : No

Text #8
ID : 11
Format : UTF-8
Codec ID : S_TEXT/UTF8
Codec ID/Info : UTF-8 Plain Text
Duration : 51 min 10 s
Bit rate : 37 b/s
Frame rate : 0.175 FPS
Count of elements : 536
Stream size : 14.1 KiB (0%)
Language : Spanish
Default : No
Forced : No

Text #9
ID : 12
Format : UTF-8
Codec ID : S_TEXT/UTF8
Codec ID/Info : UTF-8 Plain Text
Duration : 51 min 9 s
Bit rate : 36 b/s
Frame rate : 0.180 FPS
Count of elements : 552
Stream size : 13.6 KiB (0%)
Title : European
Language : Spanish
Default : No
Forced : No

Text #10
ID : 13
Format : UTF-8
Codec ID : S_TEXT/UTF8
Codec ID/Info : UTF-8 Plain Text
Duration : 51 min 10 s
Bit rate : 36 b/s
Frame rate : 0.130 FPS
Count of elements : 399
Stream size : 13.6 KiB (0%)
Language : Finnish
Default : No
Forced : No

Text #11
ID : 14
Format : UTF-8
Codec ID : S_TEXT/UTF8
Codec ID/Info : UTF-8 Plain Text
Duration : 49 min 3 s
Bit rate : 50 b/s
Frame rate : 0.187 FPS
Count of elements : 550
Stream size : 18.1 KiB (0%)
Title : [CC]
Language : French
Default : No
Forced : No

Text #12
ID : 15
Format : UTF-8
Codec ID : S_TEXT/UTF8
Codec ID/Info : UTF-8 Plain Text
Duration : 51 min 10 s
Bit rate : 63 b/s
Frame rate : 0.177 FPS
Count of elements : 543
Stream size : 23.7 KiB (0%)
Language : Hebrew
Default : No
Forced : No

Text #13
ID : 16
Format : UTF-8
Codec ID : S_TEXT/UTF8
Codec ID/Info : UTF-8 Plain Text
Duration : 49 min 37 s
Bit rate : 34 b/s
Frame rate : 0.178 FPS
Count of elements : 531
Stream size : 12.7 KiB (0%)
Language : Croatian
Default : No
Forced : No

Text #14
ID : 17
Format : UTF-8
Codec ID : S_TEXT/UTF8
Codec ID/Info : UTF-8 Plain Text
Duration : 51 min 10 s
Bit rate : 38 b/s
Frame rate : 0.164 FPS
Count of elements : 505
Stream size : 14.3 KiB (0%)
Language : Hungarian
Default : No
Forced : No

Text #15
ID : 18
Format : UTF-8
Codec ID : S_TEXT/UTF8
Codec ID/Info : UTF-8 Plain Text
Duration : 51 min 10 s
Bit rate : 36 b/s
Frame rate : 0.178 FPS
Count of elements : 545
Stream size : 13.7 KiB (0%)
Language : Indonesian
Default : No
Forced : No

Text #16
ID : 19
Format : UTF-8
Codec ID : S_TEXT/UTF8
Codec ID/Info : UTF-8 Plain Text
Duration : 51 min 10 s
Bit rate : 36 b/s
Frame rate : 0.173 FPS
Count of elements : 530
Stream size : 13.7 KiB (0%)
Language : Italian
Default : No
Forced : No

Text #17
ID : 20
Format : UTF-8
Codec ID : S_TEXT/UTF8
Codec ID/Info : UTF-8 Plain Text
Duration : 51 min 9 s
Bit rate : 39 b/s
Frame rate : 0.193 FPS
Count of elements : 591
Stream size : 14.6 KiB (0%)
Language : Japanese
Default : No
Forced : No

Text #18
ID : 21
Format : UTF-8
Codec ID : S_TEXT/UTF8
Codec ID/Info : UTF-8 Plain Text
Duration : 51 min 10 s
Bit rate : 49 b/s
Frame rate : 0.179 FPS
Count of elements : 549
Stream size : 18.7 KiB (0%)
Language : Korean
Default : No
Forced : No

Text #19
ID : 22
Format : UTF-8
Codec ID : S_TEXT/UTF8
Codec ID/Info : UTF-8 Plain Text
Duration : 51 min 10 s
Bit rate : 35 b/s
Frame rate : 0.165 FPS
Count of elements : 507
Stream size : 13.4 KiB (0%)
Language : Malay
Default : No
Forced : No

Text #20
ID : 23
Format : UTF-8
Codec ID : S_TEXT/UTF8
Codec ID/Info : UTF-8 Plain Text
Duration : 51 min 10 s
Bit rate : 34 b/s
Frame rate : 0.169 FPS
Count of elements : 518
Stream size : 12.8 KiB (0%)
Language : Norwegian Bokmal
Default : No
Forced : No

Text #21
ID : 24
Format : UTF-8
Codec ID : S_TEXT/UTF8
Codec ID/Info : UTF-8 Plain Text
Duration : 51 min 9 s
Bit rate : 38 b/s
Frame rate : 0.165 FPS
Count of elements : 507
Stream size : 14.4 KiB (0%)
Language : Dutch
Default : No
Forced : No

Text #22
ID : 25
Format : UTF-8
Codec ID : S_TEXT/UTF8
Codec ID/Info : UTF-8 Plain Text
Duration : 51 min 9 s
Bit rate : 35 b/s
Frame rate : 0.177 FPS
Count of elements : 544
Stream size : 13.1 KiB (0%)
Language : Polish
Default : No
Forced : No

Text #23
ID : 26
Format : UTF-8
Codec ID : S_TEXT/UTF8
Codec ID/Info : UTF-8 Plain Text
Duration : 51 min 10 s
Bit rate : 37 b/s
Frame rate : 0.175 FPS
Count of elements : 536
Stream size : 13.9 KiB (0%)
Language : Portuguese
Default : No
Forced : No

Text #24
ID : 27
Format : UTF-8
Codec ID : S_TEXT/UTF8
Codec ID/Info : UTF-8 Plain Text
Duration : 51 min 10 s
Bit rate : 36 b/s
Frame rate : 0.176 FPS
Count of elements : 540
Stream size : 13.5 KiB (0%)
Title : Brazilian
Language : Portuguese
Default : No
Forced : No

Text #25
ID : 28
Format : UTF-8
Codec ID : S_TEXT/UTF8
Codec ID/Info : UTF-8 Plain Text
Duration : 51 min 10 s
Bit rate : 39 b/s
Frame rate : 0.174 FPS
Count of elements : 535
Stream size : 14.9 KiB (0%)
Language : Romanian
Default : No
Forced : No

Text #26
ID : 29
Format : UTF-8
Codec ID : S_TEXT/UTF8
Codec ID/Info : UTF-8 Plain Text
Duration : 51 min 10 s
Bit rate : 61 b/s
Frame rate : 0.180 FPS
Count of elements : 554
Stream size : 23.1 KiB (0%)
Language : Russian
Default : No
Forced : No

Text #27
ID : 30
Format : UTF-8
Codec ID : S_TEXT/UTF8
Codec ID/Info : UTF-8 Plain Text
Duration : 51 min 10 s
Bit rate : 37 b/s
Frame rate : 0.152 FPS
Count of elements : 466
Stream size : 14.2 KiB (0%)
Language : Swedish
Default : No
Forced : No

Text #28
ID : 31
Format : UTF-8
Codec ID : S_TEXT/UTF8
Codec ID/Info : UTF-8 Plain Text
Duration : 51 min 10 s
Bit rate : 98 b/s
Frame rate : 0.182 FPS
Count of elements : 558
Stream size : 37.0 KiB (0%)
Language : Thai
Default : No
Forced : No

Text #29
ID : 32
Format : UTF-8
Codec ID : S_TEXT/UTF8
Codec ID/Info : UTF-8 Plain Text
Duration : 51 min 9 s
Bit rate : 39 b/s
Frame rate : 0.172 FPS
Count of elements : 527
Stream size : 14.9 KiB (0%)
Language : Turkish
Default : No
Forced : No

Text #30
ID : 33
Format : UTF-8
Codec ID : S_TEXT/UTF8
Codec ID/Info : UTF-8 Plain Text
Duration : 51 min 10 s
Bit rate : 59 b/s
Frame rate : 0.172 FPS
Count of elements : 529
Stream size : 22.1 KiB (0%)
Language : Ukrainian
Default : No
Forced : No

Text #31
ID : 34
Format : UTF-8
Codec ID : S_TEXT/UTF8
Codec ID/Info : UTF-8 Plain Text
Duration : 51 min 10 s
Bit rate : 51 b/s
Frame rate : 0.176 FPS
Count of elements : 539
Stream size : 19.3 KiB (0%)
Language : Vietnamese
Default : No
Forced : No

Text #32
ID : 35
Format : UTF-8
Codec ID : S_TEXT/UTF8
Codec ID/Info : UTF-8 Plain Text
Duration : 51 min 10 s
Bit rate : 42 b/s
Frame rate : 0.178 FPS
Count of elements : 546
Stream size : 16.1 KiB (0%)
Title : 中文(简体)
Language : 中文
Default : No
Forced : No

Text #33
ID : 36
Format : UTF-8
Codec ID : S_TEXT/UTF8
Codec ID/Info : UTF-8 Plain Text
Duration : 51 min 9 s
Bit rate : 41 b/s
Frame rate : 0.199 FPS
Count of elements : 611
Stream size : 15.6 KiB (0%)
Title : 中文(繁体)
Language : 中文
Default : No
Forced : No



下载地址:

游客,如果您要查看本帖隐藏内容请回复






上一篇:星际牛仔 [简繁中字] (2017) 第一季全10集/4K高清版本下载
下一篇:卢克·凯奇 [简繁中字] (2018) 第一至二季全/4K高清版本下载
回复

使用道具 举报

1

主题

1286

帖子

3876

积分

4K家园VIP

Rank: 9Rank: 9Rank: 9

积分
3876
发表于 2022-7-24 18:17:07 | 显示全部楼层
鼎力支持!!
回复 支持 反对

使用道具 举报

0

主题

2

帖子

9

积分

新手上路

Rank: 1

积分
9
发表于 2022-7-24 22:29:10 | 显示全部楼层
顶一个
回复

使用道具 举报

0

主题

8337

帖子

1万

积分

4K家园VIP

Rank: 9Rank: 9Rank: 9

积分
19388
发表于 2022-7-25 08:54:47 | 显示全部楼层
太好啦&萬分感謝版主的無私發佈分享%
回复 支持 反对

使用道具 举报

2

主题

1673

帖子

4659

积分

4K家园VIP

Rank: 9Rank: 9Rank: 9

积分
4659
发表于 2022-8-5 12:48:05 | 显示全部楼层
锄禾日当午,发帖真辛苦。谁知坛中餐,帖帖皆辛苦!
回复 支持 反对

使用道具 举报

您需要登录后才可以回帖 登录 | 立即注册

本版积分规则

精彩图文
Archiver|手机版|TAG|Sitemap|新帖|专题|联系我们:邮箱: 4kjia.com@gmail.com   

4k家园   ©2019