[4K电影] 绿灯侠:畏吾神光 (2022) 4K高清版本下载

[复制链接]

2163

主题

2306

帖子

1万

积分

超级版主

Rank: 8Rank: 8

积分
16861
 楼主| 发表于 2022-7-26 10:35:01 | 显示全部楼层 |阅读模式
本帖最后由 最爱4K哟 于 2022-7-26 10:57 编辑

QQ图片20220726103240_副本.png

◎译  名 绿灯侠:畏吾神光/绿灯侠:绿灯长明
◎片  名 Green Lantern: Beware My Power
◎年  代 2022
◎产  地 美国
◎类  别 动画
◎语  言 英语
◎上映日期 2022-07-26(美国)
◎IMDb评分 0/10 from 0 users
◎IMDb链接 https://www.imdb.com/title/tt20192230/
◎豆瓣评分 0/10 from 0 users
◎豆瓣链接 https://movie.douban.com/subject/35633924/
◎导  演 杰夫·瓦斯特 Jeff Wamester
◎编  剧 厄尼·阿特巴克 Ernie Altbacker / 约翰·森佩尔 John Semper
◎主  演 阿尔迪斯·霍吉 Aldis Hodge
       吉米·辛普森 Jimmi Simpson
       诺兰·诺斯 Nolan North
       杰米·格雷·海德 Jamie Gray Hyder
       布莱恩·布鲁姆 Brian Bloom
       凯沙·夏普 Keesha Sharp
       艾克·阿玛迪 Ike Amadi
       苏尼尔·马尔霍特拉 Sunil Malhotra



◎简  介


  最近退役的海军陆战队狙击手约翰·斯图尔特正处于人生的十字路口,只有收到一枚外星戒指才能使他的人生变得复杂他拥有地球上绿灯的力量。
General
Complete name                  : G:\qB下载\Green.Lantern.Beware.My.Power.2022.2160p.WEB-DL.DD5.1.HDR.H.265-EVO
Format                         : Matroska
Format version                 : Version 4
File size                      : 8.99 GiB
Duration                       : 1 h 27 min
Overall bit rate               : 14.7 Mb/s
Encoded date                   : UTC 2022-07-25 23:06:30
Writing application            : mkvmerge v63.0.0 ('Everything') 64-bit
Writing library                : libebml v1.4.2 + libmatroska v1.6.4

Video
ID                             : 1
Format                         : HEVC
Format/Info                    : High Efficiency Video Coding
Format profile                 : Main 10@L5@High
HDR format                     : SMPTE ST 2086, HDR10 compatible
Codec ID                       : V_MPEGH/ISO/HEVC
Duration                       : 1 h 27 min
Bit rate                       : 14.3 Mb/s
Width                          : 3 840 pixels
Height                         : 2 160 pixels
Display aspect ratio           : 16:9
Frame rate mode                : Constant
Frame rate                     : 23.976 FPS
Color space                    : YUV
Chroma subsampling             : 4:2:0 (Type 2)
Bit depth                      : 10 bits
Bits/(Pixel*Frame)             : 0.072
Stream size                    : 8.75 GiB (97%)
Default                        : Yes
Forced                         : No
Color range                    : Limited
Color primaries                : BT.2020
Transfer characteristics       : PQ
Matrix coefficients            : BT.2020 non-constant
Mastering display color primar : BT.2020
Mastering display luminance    : min: 0.0050 cd/m2, max: 1000 cd/m2
Maximum Content Light Level    : 865 cd/m2
Maximum Frame-Average Light Le : 391 cd/m2

Audio
ID                             : 2
Format                         : AC-3
Format/Info                    : Audio Coding 3
Commercial name                : Dolby Digital
Codec ID                       : A_AC3
Duration                       : 1 h 27 min
Bit rate mode                  : Constant
Bit rate                       : 384 kb/s
Channel(s)                     : 6 channels
Channel layout                 : L R C LFE Ls Rs
Sampling rate                  : 48.0 kHz
Frame rate                     : 31.250 FPS (1536 SPF)
Compression mode               : Lossy
Stream size                    : 240 MiB (3%)
Language                       : English
Service kind                   : Complete Main
Default                        : Yes
Forced                         : No

资源速度为零或资源敏感被和谐时,推荐使用qBittorrent等下载软件,有条件的推荐115更好的下载软件!

下载地址:

游客,如果您要查看本帖隐藏内容请回复

游客,如果您要查看本帖隐藏内容请回复




上一篇:风的另一边 / The Other Side of the Wind‎ (2018) 4K高清版本下载
下一篇:祝祷 / Benediction‎ (2021) 4K高清版本下载
回复

使用道具 举报

0

主题

1331

帖子

4021

积分

4K家园VIP

Rank: 9Rank: 9Rank: 9

积分
4021
发表于 2022-7-26 10:35:06 | 显示全部楼层
占位编辑
回复 支持 反对

使用道具 举报

55

主题

1535

帖子

4437

积分

4K家园VIP

Rank: 9Rank: 9Rank: 9

积分
4437
发表于 2022-7-26 10:35:06 | 显示全部楼层
支持支持再支持
回复 支持 反对

使用道具 举报

46

主题

1509

帖子

4371

积分

4K家园VIP

Rank: 9Rank: 9Rank: 9

积分
4371
发表于 2022-7-26 11:00:26 | 显示全部楼层
专业抢沙发的!哈哈
回复 支持 反对

使用道具 举报

11

主题

1276

帖子

3812

积分

4K家园VIP

Rank: 9Rank: 9Rank: 9

积分
3812
发表于 2022-7-26 12:12:35 | 显示全部楼层
你们要是有4K资源记得分享,别小气
回复 支持 反对

使用道具 举报

4

主题

1243

帖子

3761

积分

4K家园VIP

Rank: 9Rank: 9Rank: 9

积分
3761
发表于 2022-7-26 12:26:21 | 显示全部楼层
没人回帖。。。我来个吧
回复 支持 反对

使用道具 举报

0

主题

433

帖子

2643

积分

注册会员

Rank: 2

积分
2643
发表于 2022-7-26 12:44:14 | 显示全部楼层
谢谢楼主分享
回复 支持 反对

使用道具 举报

0

主题

2

帖子

16

积分

新手上路

Rank: 1

积分
16
发表于 2022-7-26 18:53:35 | 显示全部楼层
感谢分享
回复

使用道具 举报

0

主题

4

帖子

27

积分

新手上路

Rank: 1

积分
27
发表于 2022-7-27 22:40:11 来自手机 | 显示全部楼层
辛苦了!非常感谢
回复 支持 反对

使用道具 举报

0

主题

5

帖子

18

积分

新手上路

Rank: 1

积分
18
发表于 2022-7-28 16:29:36 | 显示全部楼层
谢谢楼主
回复

使用道具 举报

您需要登录后才可以回帖 登录 | 立即注册

本版积分规则

精彩图文
Archiver|手机版|TAG|Sitemap|新帖|专题|联系我们:邮箱: 4kjia.com@gmail.com   

4k家园   ©2019