[4K电影] 祝祷 / Benediction‎ (2021) 4K高清版本下载

[复制链接]

2163

主题

2306

帖子

1万

积分

超级版主

Rank: 8Rank: 8

积分
16861
 楼主| 发表于 2022-7-26 13:16:47 | 显示全部楼层 |阅读模式
本帖最后由 最爱4K哟 于 2022-7-26 14:21 编辑

QQ图片20220726130744_副本.png

◎译  名 祝祷/我心怅然如诗(台)
◎片  名 Benediction
◎年  代 2021
◎产  地 英国/美国
◎类  别 剧情/传记/战争
◎语  言 英语
◎上映日期 2021-09-12(多伦多电影节)/2021-09-18(圣塞巴斯蒂安电影节)/2022-06-03(美国)
◎IMDb评分  6.8/10 from 1127 users
◎IMDb链接  https://www.imdb.com/title/tt6852178/
◎豆瓣评分 /10 from 0 users
◎豆瓣链接 https://movie.douban.com/subject/26728627/
◎导  演 特伦斯·戴维斯 Terence Davies
◎编  剧 特伦斯·戴维斯 Terence Davies
◎主  演 杰克·劳登 Jack Lowden
       彼得·卡帕尔迪 Peter Capaldi
       凯特·菲利普斯 Kate Phillips
       杰玛·琼斯 Gemma Jones
       卡拉姆·林奇 Calam Lynch
       杰拉丁妮·詹姆斯 Geraldine James
       朱利安·山德斯 Julian Sands
       杰瑞米·艾文 Jeremy Irvine
       安东·莱瑟 Anton Lesser
       西蒙·拉塞尔·比尔 Simon Russell Beale
       本·丹尼尔斯 Ben Daniels
       汤姆·布莱斯 Tom Blyth
       凯莉·雪莉 Kellie Shirley
       莉娅·威廉姆斯 Lia Williams
       苏珊娜·伯蒂什 Suzanne Bertish
       埃德蒙德·金斯利 Edmund Kingsley
       哈利·劳蒂 Harry Lawtey
       理查德·古尔丁 Richard Goulding
       裘德·阿库维迪克 Jude Akuwidike
       斯泰西·琳恩·克罗 Stacey Lynn Crowe
       杰米-李·比彻 Jamie-Lee Beacher
       乔安娜·培根 Joanna Bacon
       Mark Oosterveen Mark Oosterveen


◎简  介


  一战时期诗人西格夫里·萨松曾因在西线作战时的英勇表现而被授予勋章,他最令人难忘的作品是关于一战的诗歌,这些诗歌为他赢得了公众和评论界的赞誉。而当他独自提出反战抗议时,他成为了军队中持不同政见的焦点。

◎获奖情况

  第69届圣塞巴斯蒂安国际电影节(2021)
  金贝壳奖(提名)
  最佳剧本
Video
ID : 1
Format : HEVC
Format/Info : High Efficiency Video Coding
Format profile : Main 10@L5@High
Codec ID : V_MPEGH/ISO/HEVC
Duration : 2 h 17 min
Bit rate : 12.0 Mb/s
Width : 3 832 pixels
Height : 1 596 pixels
Display aspect ratio : 2.40:1
Frame rate mode : Constant
Frame rate : 23.976 FPS
Color space : YUV
Chroma subsampling : 4:2:0
Bit depth : 10 bits
Bits/(Pixel*Frame) : 0.082
Stream size : 11.5 GiB (97%)
Default : Yes
Forced : No
Color range : Limited
Color primaries : BT.709
Transfer characteristics : BT.709
Matrix coefficients : BT.709

Audio
ID : 2
Format : AC-3
Format/Info : Audio Coding 3
Commercial name : Dolby Digital
Codec ID : A_AC3
Duration : 2 h 17 min
Bit rate mode : Constant
Bit rate : 384 kb/s
Channel(s) : 6 channels
Channel layout : L R C LFE Ls Rs
Sampling rate : 48.0 kHz
Frame rate : 31.250 FPS (1536 SPF)
Compression mode : Lossy
Stream size : 377 MiB (3%)
Language : English
Service kind : Complete Main
Default : Yes
Forced : No

Text
ID : 3
Format : UTF-8
Codec ID : S_TEXT/UTF8
Codec ID/Info : UTF-8 Plain Text
Duration : 2 h 7 min
Bit rate : 59 b/s
Frame rate : 0.230 FPS
Count of elements : 1755
Stream size : 55.9 KiB (0%)
Language : English
Default : Yes
Forced : No

资源速度为零或资源敏感被和谐时,推荐使用qBittorrent等下载软件,有条件的推荐115更好的下载软件!

下载地址:

游客,如果您要查看本帖隐藏内容请回复

游客,如果您要查看本帖隐藏内容请回复





上一篇:绿灯侠:畏吾神光 (2022) 4K高清版本下载
下一篇:附属美丽[简繁粤中字]/Collateral Beauty(2016)4K高清版本下载
回复

使用道具 举报

3

主题

1211

帖子

3647

积分

4K家园VIP

Rank: 9Rank: 9Rank: 9

积分
3647
发表于 2022-7-26 13:16:52 | 显示全部楼层
有4K版卡,下个看下
回复 支持 反对

使用道具 举报

0

主题

1234

帖子

3716

积分

4K家园VIP

Rank: 9Rank: 9Rank: 9

积分
3716
发表于 2022-7-26 14:41:54 | 显示全部楼层
very good
回复 支持 反对

使用道具 举报

1

主题

1513

帖子

4389

积分

4K家园VIP

Rank: 9Rank: 9Rank: 9

积分
4389
发表于 2022-7-26 14:43:21 来自手机 | 显示全部楼层
正好需要啊
回复 支持 反对

使用道具 举报

2

主题

1428

帖子

4257

积分

4K家园VIP

Rank: 9Rank: 9Rank: 9

积分
4257
发表于 2022-7-26 23:52:57 | 显示全部楼层
没看懂
回复 支持 反对

使用道具 举报

6

主题

1458

帖子

4220

积分

4K家园VIP

Rank: 9Rank: 9Rank: 9

积分
4220
发表于 2022-7-27 00:29:25 来自手机 | 显示全部楼层
高手云集 果断围观
回复 支持 反对

使用道具 举报

0

主题

2

帖子

16

积分

新手上路

Rank: 1

积分
16
发表于 2022-7-27 09:26:01 | 显示全部楼层
看看内容
回复

使用道具 举报

0

主题

433

帖子

2643

积分

注册会员

Rank: 2

积分
2643
发表于 2022-7-28 11:24:31 | 显示全部楼层
谢谢楼主分享
回复 支持 反对

使用道具 举报

您需要登录后才可以回帖 登录 | 立即注册

本版积分规则

精彩图文
Archiver|手机版|TAG|Sitemap|新帖|专题|联系我们:邮箱: 4kjia.com@gmail.com   

4k家园   ©2019