毒蛇 [简繁中字] / The Serpen (2018) 第一季全/4K高清版本下载

[复制链接]

194

主题

217

帖子

2109

积分

版主

Rank: 7Rank: 7Rank: 7

积分
2109
 楼主| 发表于 2022-7-27 12:26:07 | 显示全部楼层 |阅读模式

p2646567668_副本.jpg

◎译  名 毒蛇
◎片  名 The Serpent
◎年  代 2021
◎产  地 英国
◎类  别 犯罪
◎语  言 英语
◎上映日期 2021-01-01(英国)
◎IMDb评分 7.6/10 from 42482 users
◎IMDb链接 https://www.imdb.com/title/tt7985576/
◎豆瓣评分 8.5/10 from 8424 users
◎豆瓣链接 https://douban.com/subject/27119312/
◎集  数 8
◎导  演 汤姆·森兰 Tom Shankland / 汉斯·贺伯斯 Hans Herbots
◎主  演 塔哈·拉希姆 Tahar Rahim
       珍娜·科尔曼 Jenna Coleman
       比利·豪尔 Billy Howle
       艾丽·巴姆博 Ellie Bamber
       爱丽丝·恩格勒特 Alice Englert
       玛蒂尔德·瓦尔尼耶 Mathilde Warnier
       萨哈贾克·波斯安吉特 Sahajak Boonthanakit
       法比安·弗兰克尔 Fabien Frankel
       琪洽·安玛达雅混 Chicha Amatayakul
       鲁比·阿什伯恩·瑟金斯 Ruby Ashbourne Serkis


◎简  介


  塔哈·拉希姆([预言者])将主演BBC、Netflix共同制作的8集新剧《毒蛇》。汤姆·森兰(《失踪》)执导,《开膛街》编剧理查德·瓦洛操刀剧本。剧集根据真实事件改编,塔哈将饰演法国连环杀手查尔斯·索布莱(Charles Sobhraj),剧集将围绕索布莱是如何被抓捕并判刑展开。
Video
ID : 1
Format : HEVC
Format/Info : High Efficiency Video Coding
Format profile : Main 10@L5@Main
HDR format : Dolby Vision, Version 1.0, dvhe.08.07, BL+RPU, HDR10 compatible / SMPTE ST 2086, HDR10 compatible
Codec ID : V_MPEGH/ISO/HEVC
Duration : 58 min 17 s
Bit rate : 16.0 Mb/s
Width : 3 840 pixels
Height : 2 160 pixels
Display aspect ratio : 16:9
Frame rate mode : Constant
Frame rate : 25.000 FPS
Color space : YUV
Chroma subsampling : 4:2:0 (Type 2)
Bit depth : 10 bits
Bits/(Pixel*Frame) : 0.077
Stream size : 6.51 GiB (96%)
Default : Yes
Forced : No
Color range : Limited
Color primaries : BT.2020
Transfer characteristics : PQ
Matrix coefficients : BT.2020 non-constant
Mastering display color primaries : Display P3
Mastering display luminance : min: 0.0001 cd/m2, max: 1000 cd/m2
Maximum Content Light Level : 1462 cd/m2
Maximum Frame-Average Light Level : 850 cd/m2

Audio
ID : 2
Format : E-AC-3
Format/Info : Enhanced AC-3
Commercial name : Dolby Digital Plus
Codec ID : A_EAC3
Duration : 58 min 17 s
Bit rate mode : Constant
Bit rate : 640 kb/s
Channel(s) : 6 channels
Channel layout : L R C LFE Ls Rs
Sampling rate : 48.0 kHz
Frame rate : 31.250 FPS (1536 SPF)
Compression mode : Lossy
Stream size : 267 MiB (4%)
Language : English
Service kind : Complete Main
Default : Yes
Forced : No

Text #1
ID : 3
Format : UTF-8
Codec ID : S_TEXT/UTF8
Codec ID/Info : UTF-8 Plain Text
Duration : 50 min 10 s
Bit rate : 9 b/s
Frame rate : 0.043 FPS
Count of elements : 128
Stream size : 3.44 KiB (0%)
Title : Forced
Language : English
Default : No
Forced : Yes

Text #2
ID : 4
Format : UTF-8
Codec ID : S_TEXT/UTF8
Codec ID/Info : UTF-8 Plain Text
Duration : 55 min 28 s
Bit rate : 43 b/s
Frame rate : 0.170 FPS
Count of elements : 566
Stream size : 17.6 KiB (0%)
Language : English
Default : No
Forced : No

Text #3
ID : 5
Format : UTF-8
Codec ID : S_TEXT/UTF8
Codec ID/Info : UTF-8 Plain Text
Duration : 56 min 1 s
Bit rate : 52 b/s
Frame rate : 0.191 FPS
Count of elements : 641
Stream size : 21.6 KiB (0%)
Title : SDH
Language : English
Default : No
Forced : No

Text #4
ID : 6
Format : UTF-8
Codec ID : S_TEXT/UTF8
Codec ID/Info : UTF-8 Plain Text
Duration : 58 min 2 s
Bit rate : 69 b/s
Frame rate : 0.170 FPS
Count of elements : 592
Stream size : 29.5 KiB (0%)
Language : Arabic
Default : No
Forced : No

Text #5
ID : 7
Format : UTF-8
Codec ID : S_TEXT/UTF8
Codec ID/Info : UTF-8 Plain Text
Duration : 58 min 2 s
Bit rate : 46 b/s
Frame rate : 0.170 FPS
Count of elements : 592
Stream size : 19.7 KiB (0%)
Title : 中文(简体)
Language : 中文
Default : No
Forced : No

Text #6
ID : 8
Format : UTF-8
Codec ID : S_TEXT/UTF8
Codec ID/Info : UTF-8 Plain Text
Duration : 58 min 2 s
Bit rate : 46 b/s
Frame rate : 0.170 FPS
Count of elements : 592
Stream size : 19.7 KiB (0%)
Title : 中文(繁体)
Language : 中文
Default : No
Forced : No


Text #7
ID : 9
Format : UTF-8
Codec ID : S_TEXT/UTF8
Codec ID/Info : UTF-8 Plain Text
Duration : 58 min 2 s
Bit rate : 38 b/s
Frame rate : 0.169 FPS
Count of elements : 588
Stream size : 16.3 KiB (0%)
Language : Croatian
Default : No
Forced : No

Text #8
ID : 10
Format : UTF-8
Codec ID : S_TEXT/UTF8
Codec ID/Info : UTF-8 Plain Text
Duration : 58 min 2 s
Bit rate : 39 b/s
Frame rate : 0.156 FPS
Count of elements : 542
Stream size : 16.7 KiB (0%)
Language : Czech
Default : No
Forced : No

Text #9
ID : 11
Format : UTF-8
Codec ID : S_TEXT/UTF8
Codec ID/Info : UTF-8 Plain Text
Duration : 58 min 2 s
Bit rate : 42 b/s
Frame rate : 0.167 FPS
Count of elements : 580
Stream size : 17.9 KiB (0%)
Language : Danish
Default : No
Forced : No

Text #10
ID : 12
Format : UTF-8
Codec ID : S_TEXT/UTF8
Codec ID/Info : UTF-8 Plain Text
Duration : 58 min 2 s
Bit rate : 41 b/s
Frame rate : 0.146 FPS
Count of elements : 508
Stream size : 17.4 KiB (0%)
Language : Dutch
Default : No
Forced : No

Text #11
ID : 13
Format : UTF-8
Codec ID : S_TEXT/UTF8
Codec ID/Info : UTF-8 Plain Text
Duration : 58 min 2 s
Bit rate : 39 b/s
Frame rate : 0.165 FPS
Count of elements : 576
Stream size : 16.8 KiB (0%)
Language : Finnish
Default : No
Forced : No

Text #12
ID : 14
Format : UTF-8
Codec ID : S_TEXT/UTF8
Codec ID/Info : UTF-8 Plain Text
Duration : 58 min 2 s
Bit rate : 38 b/s
Frame rate : 0.138 FPS
Count of elements : 482
Stream size : 16.3 KiB (0%)
Language : French
Default : No
Forced : No

Text #13
ID : 15
Format : UTF-8
Codec ID : S_TEXT/UTF8
Codec ID/Info : UTF-8 Plain Text
Duration : 58 min 2 s
Bit rate : 45 b/s
Frame rate : 0.168 FPS
Count of elements : 584
Stream size : 19.2 KiB (0%)
Language : German
Default : No
Forced : No

Text #14
ID : 16
Format : UTF-8
Codec ID : S_TEXT/UTF8
Codec ID/Info : UTF-8 Plain Text
Duration : 58 min 2 s
Bit rate : 73 b/s
Frame rate : 0.167 FPS
Count of elements : 582
Stream size : 31.3 KiB (0%)
Language : Greek
Default : No
Forced : No

Text #15
ID : 17
Format : UTF-8
Codec ID : S_TEXT/UTF8
Codec ID/Info : UTF-8 Plain Text
Duration : 58 min 2 s
Bit rate : 61 b/s
Frame rate : 0.170 FPS
Count of elements : 592
Stream size : 26.0 KiB (0%)
Language : Hebrew
Default : No
Forced : No

Text #16
ID : 18
Format : UTF-8
Codec ID : S_TEXT/UTF8
Codec ID/Info : UTF-8 Plain Text
Duration : 58 min 2 s
Bit rate : 43 b/s
Frame rate : 0.167 FPS
Count of elements : 581
Stream size : 18.5 KiB (0%)
Language : Hungarian
Default : No
Forced : No

Text #17
ID : 19
Format : UTF-8
Codec ID : S_TEXT/UTF8
Codec ID/Info : UTF-8 Plain Text
Duration : 58 min 2 s
Bit rate : 41 b/s
Frame rate : 0.161 FPS
Count of elements : 561
Stream size : 17.5 KiB (0%)
Language : Indonesian
Default : No
Forced : No

Text #18
ID : 20
Format : UTF-8
Codec ID : S_TEXT/UTF8
Codec ID/Info : UTF-8 Plain Text
Duration : 58 min 0 s
Bit rate : 41 b/s
Frame rate : 0.166 FPS
Count of elements : 578
Stream size : 17.8 KiB (0%)
Language : Italian
Default : No
Forced : No

Text #19
ID : 21
Format : UTF-8
Codec ID : S_TEXT/UTF8
Codec ID/Info : UTF-8 Plain Text
Duration : 58 min 2 s
Bit rate : 54 b/s
Frame rate : 0.187 FPS
Count of elements : 652
Stream size : 23.2 KiB (0%)
Language : Japanese
Default : No
Forced : No

Text #20
ID : 22
Format : UTF-8
Codec ID : S_TEXT/UTF8
Codec ID/Info : UTF-8 Plain Text
Duration : 58 min 2 s
Bit rate : 52 b/s
Frame rate : 0.170 FPS
Count of elements : 592
Stream size : 22.5 KiB (0%)
Language : Korean
Default : No
Forced : No

Text #21
ID : 23
Format : UTF-8
Codec ID : S_TEXT/UTF8
Codec ID/Info : UTF-8 Plain Text
Duration : 56 min 53 s
Bit rate : 45 b/s
Frame rate : 0.172 FPS
Count of elements : 587
Stream size : 18.9 KiB (0%)
Language : Malay
Default : No
Forced : No

Text #22
ID : 24
Format : UTF-8
Codec ID : S_TEXT/UTF8
Codec ID/Info : UTF-8 Plain Text
Duration : 58 min 2 s
Bit rate : 40 b/s
Frame rate : 0.141 FPS
Count of elements : 491
Stream size : 17.4 KiB (0%)
Language : Norwegian Bokmal
Default : No
Forced : No

Text #23
ID : 25
Format : UTF-8
Codec ID : S_TEXT/UTF8
Codec ID/Info : UTF-8 Plain Text
Duration : 58 min 2 s
Bit rate : 37 b/s
Frame rate : 0.162 FPS
Count of elements : 565
Stream size : 15.9 KiB (0%)
Language : Polish
Default : No
Forced : No

Text #24
ID : 26
Format : UTF-8
Codec ID : S_TEXT/UTF8
Codec ID/Info : UTF-8 Plain Text
Duration : 58 min 2 s
Bit rate : 42 b/s
Frame rate : 0.162 FPS
Count of elements : 564
Stream size : 18.2 KiB (0%)
Title : Brazilian
Language : Portuguese
Default : No
Forced : No

Text #25
ID : 27
Format : UTF-8
Codec ID : S_TEXT/UTF8
Codec ID/Info : UTF-8 Plain Text
Duration : 58 min 2 s
Bit rate : 44 b/s
Frame rate : 0.168 FPS
Count of elements : 585
Stream size : 18.9 KiB (0%)
Title : Iberian
Language : Portuguese
Default : No
Forced : No

Text #26
ID : 28
Format : UTF-8
Codec ID : S_TEXT/UTF8
Codec ID/Info : UTF-8 Plain Text
Duration : 58 min 2 s
Bit rate : 46 b/s
Frame rate : 0.147 FPS
Count of elements : 512
Stream size : 19.9 KiB (0%)
Language : Romanian
Default : No
Forced : No

Text #27
ID : 29
Format : UTF-8
Codec ID : S_TEXT/UTF8
Codec ID/Info : UTF-8 Plain Text
Duration : 58 min 2 s
Bit rate : 75 b/s
Frame rate : 0.170 FPS
Count of elements : 592
Stream size : 32.3 KiB (0%)
Language : Russian
Default : No
Forced : No

Text #28
ID : 30
Format : UTF-8
Codec ID : S_TEXT/UTF8
Codec ID/Info : UTF-8 Plain Text
Duration : 58 min 2 s
Bit rate : 41 b/s
Frame rate : 0.167 FPS
Count of elements : 582
Stream size : 17.4 KiB (0%)
Title : Castilian
Language : Spanish
Default : No
Forced : No

Text #29
ID : 31
Format : UTF-8
Codec ID : S_TEXT/UTF8
Codec ID/Info : UTF-8 Plain Text
Duration : 58 min 2 s
Bit rate : 41 b/s
Frame rate : 0.167 FPS
Count of elements : 581
Stream size : 17.7 KiB (0%)
Title : Latin American
Language : Spanish
Default : No
Forced : No

Text #30
ID : 32
Format : UTF-8
Codec ID : S_TEXT/UTF8
Codec ID/Info : UTF-8 Plain Text
Duration : 58 min 2 s
Bit rate : 41 b/s
Frame rate : 0.169 FPS
Count of elements : 588
Stream size : 17.8 KiB (0%)
Language : Swedish
Default : No
Forced : No

Text #31
ID : 33
Format : UTF-8
Codec ID : S_TEXT/UTF8
Codec ID/Info : UTF-8 Plain Text
Duration : 58 min 2 s
Bit rate : 107 b/s
Frame rate : 0.168 FPS
Count of elements : 584
Stream size : 45.8 KiB (0%)
Language : Thai
Default : No
Forced : No

Text #32
ID : 34
Format : UTF-8
Codec ID : S_TEXT/UTF8
Codec ID/Info : UTF-8 Plain Text
Duration : 58 min 2 s
Bit rate : 45 b/s
Frame rate : 0.169 FPS
Count of elements : 588
Stream size : 19.3 KiB (0%)
Language : Turkish
Default : No
Forced : No

Text #33
ID : 35
Format : UTF-8
Codec ID : S_TEXT/UTF8
Codec ID/Info : UTF-8 Plain Text
Duration : 58 min 6 s
Bit rate : 64 b/s
Frame rate : 0.160 FPS
Count of elements : 559
Stream size : 27.5 KiB (0%)
Language : Ukrainian
Default : No
Forced : No

Text #34
ID : 36
Format : UTF-8
Codec ID : S_TEXT/UTF8
Codec ID/Info : UTF-8 Plain Text
Duration : 58 min 2 s
Bit rate : 59 b/s
Frame rate : 0.169 FPS
Count of elements : 589
Stream size : 25.3 KiB (0%)
Language : Vietnamese
Default : No
Forced : No
下载地址:


游客,如果您要查看本帖隐藏内容请回复

游客,如果您要查看本帖隐藏内容请回复






上一篇:超胆侠 [简繁中字] (2018) 1-3季全集打包/4K高清版本下载
下一篇:白线 [简繁中字] /White Lines(2020) 第一季全/4K高清版本下载
回复

使用道具 举报

0

主题

1465

帖子

4209

积分

4K家园VIP

Rank: 9Rank: 9Rank: 9

积分
4209
发表于 2022-7-27 12:27:10 | 显示全部楼层
佩服佩服!
回复 支持 反对

使用道具 举报

0

主题

1610

帖子

4414

积分

4K家园VIP

Rank: 9Rank: 9Rank: 9

积分
4414
发表于 2022-7-27 12:27:10 | 显示全部楼层
感谢分享
回复 支持 反对

使用道具 举报

39

主题

1455

帖子

4131

积分

4K家园VIP

Rank: 9Rank: 9Rank: 9

积分
4131
发表于 2022-7-27 12:58:12 来自手机 | 显示全部楼层
没看懂
回复 支持 反对

使用道具 举报

51

主题

1534

帖子

4408

积分

4K家园VIP

Rank: 9Rank: 9Rank: 9

积分
4408
发表于 2022-7-27 13:09:36 来自手机 | 显示全部楼层
好帖必须得顶起
回复 支持 反对

使用道具 举报

37

主题

1418

帖子

4070

积分

4K家园VIP

Rank: 9Rank: 9Rank: 9

积分
4070
发表于 2022-7-27 13:37:29 | 显示全部楼层
啥玩应呀
回复 支持 反对

使用道具 举报

0

主题

129

帖子

884

积分

新手上路

Rank: 1

积分
884
发表于 2022-7-29 11:23:29 | 显示全部楼层
RE: 毒蛇 [简繁中字] / The Serpen (2018) 第一季全/4K高清版本下载 [修改]
回复 支持 反对

使用道具 举报

您需要登录后才可以回帖 登录 | 立即注册

本版积分规则

精彩图文
Archiver|手机版|TAG|Sitemap|新帖|专题|联系我们:邮箱: 4kjia.com@gmail.com   

4k家园   ©2019