白线 [简繁中字] /White Lines(2020) 第一季全/4K高清版本下载

[复制链接]

194

主题

217

帖子

2109

积分

版主

Rank: 7Rank: 7Rank: 7

积分
2109
 楼主| 发表于 2022-7-27 12:50:12 | 显示全部楼层 |阅读模式
p2601331795_副本.jpg

◎译  名 白线
◎片  名 White Lines
◎年  代 2020
◎产  地 英国/西班牙
◎类  别 剧情/悬疑
◎语  言 英语
◎上映日期 2020-05-15(英国)
◎IMDb评分  6.6/10 from 16890 users
◎IMDb链接  https://www.imdb.com/title/tt9073958/
◎豆瓣评分 6.2/10 from 551 users
◎豆瓣链接 https://douban.com/subject/30290570/
◎集  数 10
◎片  长 60分钟
◎导  演 尼克·哈姆 Nick Hamm / 路易斯·普瑞托 Luis Prieto / 阿什利·卫 Ashley Way
◎编  剧 阿莱克斯·皮纳 Álex Pina
◎主  演 劳拉·哈德克 Laura Haddock
       玛尔塔·米兰斯 Marta Milans
       胡安·迭戈·博托 Juan Diego Botto
       努诺·洛佩斯 Nuno Lopes
       丹尼尔·梅斯 Daniel Mays
       佩德罗·卡萨布兰科 Pedro Casablanc
       贝伦·洛佩兹 Belén López
       拉斐尔·莫莱斯 Rafael Morais
       哈维·科尔 Javi Coll
       杰德·阿莱恩 Jade Alleyne
       乔纳斯·萨特莫 Joonas Saartamo
       胡安·卡洛斯·凡希多 Juan Carlos Vellido
       汤姆·里斯哈里斯 Tom Rhys Harries
       吉列尔莫·拉什拉斯 Guillermo Lasheras
       哈维尔·加里多·加西亚 Javier Garrido García
       卡西厄斯·纳尔逊 Kassius Nelson
       塔鲁拉·埃文斯 Tallulah Evans
       Thor Kristjansson

◎简  介

  曼彻斯特传奇 DJ 在伊维萨岛神秘失踪二十年后,他的遗体终于被人发现,他的妹妹随后回到这座美丽的西班牙岛屿来查清真相。她的调查将其带入了一个惊心动魄的世界,这里有各种各样的夜店,还有谎言和欺骗,这里人人都在行走江湖,她也被迫要正视自己性格中的黑暗面。

Video
ID : 1
Format : HEVC
Format/Info : High Efficiency Video Coding
Format profile : Main 10@L5@Main
Codec ID : V_MPEGH/ISO/HEVC
Duration : 1 h 3 min
Bit rate : 11.6 Mb/s
Width : 3 840 pixels
Height : 2 160 pixels
Display aspect ratio : 16:9
Frame rate mode : Constant
Frame rate : 25.000 FPS
Color space : YUV
Chroma subsampling : 4:2:0
Bit depth : 10 bits
Bits/(Pixel*Frame) : 0.056
Stream size : 5.14 GiB (94%)
Default : Yes
Forced : No
Color range : Limited
Color primaries : BT.709
Transfer characteristics : BT.709
Matrix coefficients : BT.709

Audio
ID : 2
Format : E-AC-3 JOC
Format/Info : Enhanced AC-3 with Joint Object Coding
Commercial name : Dolby Digital Plus with Dolby Atmos
Codec ID : A_EAC3
Duration : 1 h 3 min
Bit rate mode : Constant
Bit rate : 768 kb/s
Channel(s) : 6 channels
Channel layout : L R C LFE Ls Rs
Sampling rate : 48.0 kHz
Frame rate : 31.250 FPS (1536 SPF)
Compression mode : Lossy
Stream size : 349 MiB (6%)
Language : English
Service kind : Complete Main
Default : Yes
Forced : No
Complexity index : 16
Number of dynamic objects : 15
Bed channel count : 1 channel
Bed channel configuration : LFE

Text #1
ID : 3
Format : UTF-8
Codec ID : S_TEXT/UTF8
Codec ID/Info : UTF-8 Plain Text
Duration : 39 min 59 s
Bit rate : 5 b/s
Frame rate : 0.025 FPS
Count of elements : 61
Stream size : 1.70 KiB (0%)
Title : Forced
Language : English
Default : Yes
Forced : Yes

Text #2
ID : 4
Format : UTF-8
Codec ID : S_TEXT/UTF8
Codec ID/Info : UTF-8 Plain Text
Duration : 1 h 1 min
Bit rate : 58 b/s
Frame rate : 0.224 FPS
Count of elements : 825
Stream size : 26.2 KiB (0%)
Language : English
Default : No
Forced : No

Text #3
ID : 5
Format : UTF-8
Codec ID : S_TEXT/UTF8
Codec ID/Info : UTF-8 Plain Text
Duration : 1 h 1 min
Bit rate : 64 b/s
Frame rate : 0.263 FPS
Count of elements : 976
Stream size : 29.4 KiB (0%)
Title : SDH
Language : English
Default : No
Forced : No

Text #4
ID : 6
Format : UTF-8
Codec ID : S_TEXT/UTF8
Codec ID/Info : UTF-8 Plain Text
Duration : 1 h 2 min
Bit rate : 78 b/s
Frame rate : 0.200 FPS
Count of elements : 747
Stream size : 35.6 KiB (0%)
Language : Arabic
Default : No
Forced : No

Text #5
ID : 7
Format : UTF-8
Codec ID : S_TEXT/UTF8
Codec ID/Info : UTF-8 Plain Text
Duration : 1 h 2 min
Bit rate : 44 b/s
Frame rate : 0.196 FPS
Count of elements : 730
Stream size : 20.4 KiB (0%)
Language : Czech
Default : No
Forced : No

Text #6
ID : 8
Format : UTF-8
Codec ID : S_TEXT/UTF8
Codec ID/Info : UTF-8 Plain Text
Duration : 1 h 2 min
Bit rate : 46 b/s
Frame rate : 0.172 FPS
Count of elements : 641
Stream size : 21.0 KiB (0%)
Language : Danish
Default : No
Forced : No

Text #7
ID : 9
Format : UTF-8
Codec ID : S_TEXT/UTF8
Codec ID/Info : UTF-8 Plain Text
Duration : 1 h 2 min
Bit rate : 47 b/s
Frame rate : 0.187 FPS
Count of elements : 697
Stream size : 21.7 KiB (0%)
Language : German
Default : No
Forced : No

Text #8
ID : 10
Format : UTF-8
Codec ID : S_TEXT/UTF8
Codec ID/Info : UTF-8 Plain Text
Duration : 1 h 0 min
Bit rate : 83 b/s
Frame rate : 0.201 FPS
Count of elements : 728
Stream size : 37.1 KiB (0%)
Language : Greek
Default : No
Forced : No

Text #9
ID : 11
Format : UTF-8
Codec ID : S_TEXT/UTF8
Codec ID/Info : UTF-8 Plain Text
Duration : 1 h 2 min
Bit rate : 44 b/s
Frame rate : 0.175 FPS
Count of elements : 652
Stream size : 20.1 KiB (0%)
Title : Latin American
Language : Spanish
Default : No
Forced : No

Text #10
ID : 12
Format : UTF-8
Codec ID : S_TEXT/UTF8
Codec ID/Info : UTF-8 Plain Text
Duration : 1 h 2 min
Bit rate : 53 b/s
Frame rate : 0.209 FPS
Count of elements : 778
Stream size : 24.2 KiB (0%)
Title : European
Language : Spanish
Default : No
Forced : No

Text #11
ID : 13
Format : UTF-8
Codec ID : S_TEXT/UTF8
Codec ID/Info : UTF-8 Plain Text
Duration : 1 h 2 min
Bit rate : 62 b/s
Frame rate : 0.261 FPS
Count of elements : 973
Stream size : 28.4 KiB (0%)
Title : European (SDH)
Language : Spanish
Default : No
Forced : No

Text #12
ID : 14
Format : UTF-8
Codec ID : S_TEXT/UTF8
Codec ID/Info : UTF-8 Plain Text
Duration : 1 h 2 min
Bit rate : 44 b/s
Frame rate : 0.191 FPS
Count of elements : 710
Stream size : 20.3 KiB (0%)
Language : Finnish
Default : No
Forced : No

Text #13
ID : 15
Format : UTF-8
Codec ID : S_TEXT/UTF8
Codec ID/Info : UTF-8 Plain Text
Duration : 1 h 2 min
Bit rate : 48 b/s
Frame rate : 0.194 FPS
Count of elements : 721
Stream size : 22.3 KiB (0%)
Language : French
Default : No
Forced : No

Text #14
ID : 16
Format : UTF-8
Codec ID : S_TEXT/UTF8
Codec ID/Info : UTF-8 Plain Text
Duration : 1 h 2 min
Bit rate : 74 b/s
Frame rate : 0.201 FPS
Count of elements : 748
Stream size : 33.8 KiB (0%)
Language : Hebrew
Default : No
Forced : No

Text #15
ID : 17
Format : UTF-8
Codec ID : S_TEXT/UTF8
Codec ID/Info : UTF-8 Plain Text
Duration : 1 h 2 min
Bit rate : 43 b/s
Frame rate : 0.190 FPS
Count of elements : 708
Stream size : 20.0 KiB (0%)
Language : Croatian
Default : No
Forced : No

Text #16
ID : 18
Format : UTF-8
Codec ID : S_TEXT/UTF8
Codec ID/Info : UTF-8 Plain Text
Duration : 1 h 0 min
Bit rate : 50 b/s
Frame rate : 0.190 FPS
Count of elements : 694
Stream size : 22.5 KiB (0%)
Language : Hungarian
Default : No
Forced : No

Text #17
ID : 19
Format : UTF-8
Codec ID : S_TEXT/UTF8
Codec ID/Info : UTF-8 Plain Text
Duration : 1 h 2 min
Bit rate : 48 b/s
Frame rate : 0.201 FPS
Count of elements : 749
Stream size : 22.0 KiB (0%)
Language : Indonesian
Default : No
Forced : No

Text #18
ID : 20
Format : UTF-8
Codec ID : S_TEXT/UTF8
Codec ID/Info : UTF-8 Plain Text
Duration : 1 h 2 min
Bit rate : 46 b/s
Frame rate : 0.182 FPS
Count of elements : 678
Stream size : 21.4 KiB (0%)
Language : Italian
Default : No
Forced : No

Text #19
ID : 21
Format : UTF-8
Codec ID : S_TEXT/UTF8
Codec ID/Info : UTF-8 Plain Text
Duration : 1 h 2 min
Bit rate : 46 b/s
Frame rate : 0.196 FPS
Count of elements : 729
Stream size : 20.9 KiB (0%)
Language : Japanese
Default : No
Forced : No

Text #20
ID : 22
Format : UTF-8
Codec ID : S_TEXT/UTF8
Codec ID/Info : UTF-8 Plain Text
Duration : 1 h 2 min
Bit rate : 60 b/s
Frame rate : 0.204 FPS
Count of elements : 760
Stream size : 27.3 KiB (0%)
Language : Korean
Default : No
Forced : No

Text #21
ID : 23
Format : UTF-8
Codec ID : S_TEXT/UTF8
Codec ID/Info : UTF-8 Plain Text
Duration : 1 h 2 min
Bit rate : 43 b/s
Frame rate : 0.159 FPS
Count of elements : 593
Stream size : 20.0 KiB (0%)
Language : Norwegian Bokmal
Default : No
Forced : No

Text #22
ID : 24
Format : UTF-8
Codec ID : S_TEXT/UTF8
Codec ID/Info : UTF-8 Plain Text
Duration : 1 h 2 min
Bit rate : 45 b/s
Frame rate : 0.172 FPS
Count of elements : 639
Stream size : 20.7 KiB (0%)
Language : Dutch
Default : No
Forced : No

Text #23
ID : 25
Format : UTF-8
Codec ID : S_TEXT/UTF8
Codec ID/Info : UTF-8 Plain Text
Duration : 1 h 2 min
Bit rate : 48 b/s
Frame rate : 0.194 FPS
Count of elements : 721
Stream size : 21.9 KiB (0%)
Language : Polish
Default : No
Forced : No

Text #24
ID : 26
Format : UTF-8
Codec ID : S_TEXT/UTF8
Codec ID/Info : UTF-8 Plain Text
Duration : 1 h 2 min
Bit rate : 45 b/s
Frame rate : 0.197 FPS
Count of elements : 733
Stream size : 20.8 KiB (0%)
Title : Brazilian
Language : Portuguese
Default : No
Forced : No

Text #25
ID : 27
Format : UTF-8
Codec ID : S_TEXT/UTF8
Codec ID/Info : UTF-8 Plain Text
Duration : 1 h 2 min
Bit rate : 47 b/s
Frame rate : 0.199 FPS
Count of elements : 740
Stream size : 21.4 KiB (0%)
Title : European
Language : Portuguese
Default : No
Forced : No

Text #26
ID : 28
Format : UTF-8
Codec ID : S_TEXT/UTF8
Codec ID/Info : UTF-8 Plain Text
Duration : 1 h 2 min
Bit rate : 52 b/s
Frame rate : 0.196 FPS
Count of elements : 730
Stream size : 24.0 KiB (0%)
Language : Romanian
Default : No
Forced : No

Text #27
ID : 29
Format : UTF-8
Codec ID : S_TEXT/UTF8
Codec ID/Info : UTF-8 Plain Text
Duration : 1 h 2 min
Bit rate : 74 b/s
Frame rate : 0.215 FPS
Count of elements : 800
Stream size : 34.0 KiB (0%)
Language : Russian
Default : No
Forced : No

Text #28
ID : 30
Format : UTF-8
Codec ID : S_TEXT/UTF8
Codec ID/Info : UTF-8 Plain Text
Duration : 1 h 2 min
Bit rate : 50 b/s
Frame rate : 0.199 FPS
Count of elements : 742
Stream size : 23.0 KiB (0%)
Language : Swedish
Default : No
Forced : No

Text #29
ID : 31
Format : UTF-8
Codec ID : S_TEXT/UTF8
Codec ID/Info : UTF-8 Plain Text
Duration : 1 h 2 min
Bit rate : 106 b/s
Frame rate : 0.199 FPS
Count of elements : 741
Stream size : 48.5 KiB (0%)
Language : Thai
Default : No
Forced : No

Text #30
ID : 32
Format : UTF-8
Codec ID : S_TEXT/UTF8
Codec ID/Info : UTF-8 Plain Text
Duration : 1 h 2 min
Bit rate : 45 b/s
Frame rate : 0.196 FPS
Count of elements : 730
Stream size : 20.8 KiB (0%)
Language : Turkish
Default : No
Forced : No

Text #31
ID : 33
Format : UTF-8
Codec ID : S_TEXT/UTF8
Codec ID/Info : UTF-8 Plain Text
Duration : 1 h 2 min
Bit rate : 63 b/s
Frame rate : 0.201 FPS
Count of elements : 749
Stream size : 28.7 KiB (0%)
Language : Vietnamese
Default : No
Forced : No

Text #32
ID : 34
Format : UTF-8
Codec ID : S_TEXT/UTF8
Codec ID/Info : UTF-8 Plain Text
Duration : 1 h 2 min
Bit rate : 50 b/s
Frame rate : 0.203 FPS
Count of elements : 755
Stream size : 23.0 KiB (0%)
Title : 中文(简体)
Language : 中文
Default : No
Forced : No

Text #33
ID : 35
Format : UTF-8
Codec ID : S_TEXT/UTF8
Codec ID/Info : UTF-8 Plain Text
Duration : 1 h 2 min
Bit rate : 47 b/s
Frame rate : 0.202 FPS
Count of elements : 753
Stream size : 21.4 KiB (0%)
Title : 中文(繁体)
Language : 中文
Default : No
Forced : No


Menu
00:00:00.000 : enart 01
01:00:50.450 : en:Credits
下载地址:

游客,如果您要查看本帖隐藏内容请回复






上一篇:毒蛇 [简繁中字] / The Serpen (2018) 第一季全/4K高清版本下载
下一篇:纸钞屋[简繁中字]/Money.Heist(2020)第三至四季全/4K高清版本下载
回复

使用道具 举报

2

主题

1381

帖子

4009

积分

4K家园VIP

Rank: 9Rank: 9Rank: 9

积分
4009
发表于 2022-7-27 13:15:18 | 显示全部楼层
不错 支持下
回复 支持 反对

使用道具 举报

0

主题

8337

帖子

1万

积分

4K家园VIP

Rank: 9Rank: 9Rank: 9

积分
19388
发表于 2022-7-27 15:24:24 | 显示全部楼层
廣東龍門永遠馬到成功&萬分感謝版主的無私發佈分享%
回复 支持 反对

使用道具 举报

54

主题

1484

帖子

4298

积分

4K家园VIP

Rank: 9Rank: 9Rank: 9

积分
4298
发表于 2022-7-28 04:27:53 | 显示全部楼层
高手啊
回复 支持 反对

使用道具 举报

3

主题

1393

帖子

4203

积分

4K家园VIP

Rank: 9Rank: 9Rank: 9

积分
4203
发表于 2022-7-28 08:22:01 | 显示全部楼层
哈哈,我只看看不说话
回复 支持 反对

使用道具 举报

0

主题

1315

帖子

3961

积分

4K家园VIP

Rank: 9Rank: 9Rank: 9

积分
3961
发表于 2022-7-29 18:31:40 来自手机 | 显示全部楼层
前排,哇咔咔
回复 支持 反对

使用道具 举报

3

主题

1300

帖子

3910

积分

4K家园VIP

Rank: 9Rank: 9Rank: 9

积分
3910
发表于 2022-7-30 01:43:53 | 显示全部楼层
感谢楼主的分享,还是阔以滴
回复 支持 反对

使用道具 举报

您需要登录后才可以回帖 登录 | 立即注册

本版积分规则

精彩图文
Archiver|手机版|TAG|Sitemap|新帖|专题|联系我们:邮箱: 4kjia.com@gmail.com   

4k家园   ©2019