纸钞屋[简繁中字]/Money.Heist(2020)第三至四季全/4K高清版本下载

[复制链接]

194

主题

217

帖子

2109

积分

版主

Rank: 7Rank: 7Rank: 7

积分
2109
 楼主| 发表于 2022-7-27 13:12:24 | 显示全部楼层 |阅读模式
36d4d112a37554c3d0586efc92bab482_副本.jpg
◎标  题 纸钞屋 第三季
◎译  名 纸房子 / Money Heist / House of Paper
◎片  名 La casa de papel Season 3
◎年  代 2019
◎产  地 西班牙
◎类  别 动作 / 悬疑 / 惊悚 / 犯罪
◎语  言 西班牙语 / 俄语 / 塞尔维亚语 / 英语
◎上映日期 2019-07-19(西班牙)
◎IMDb评分 8.2/10 from 463411 users
◎IMDb链接 https://www.imdb.com/title/tt8299494/
◎豆瓣评分 9.0/10 from 19035 users
◎豆瓣链接 https://movie.douban.com/subject/30201281/
◎片  长 50分钟
◎导  演 杰斯·科尔梅纳 Jesús Colmenar
◎编  剧 阿莱克斯·皮纳 Álex Pina
◎演  员 乌苏拉·科尔维罗 Úrsula Corberó
       伊西娅尔·伊图诺 Itziar Ituño
       阿尔瓦罗·莫奇 Álvaro Morte
       佩德罗·阿隆索 Pedro Alonso
       阿尔巴·弗洛雷斯 Alba Flores
       米盖尔·赫尔南 Miguel Herrán
       海因米·洛伦特 Jaime Lorente
       埃丝特·阿塞博 Esther Acebo
       恩里克·阿尔切 Enrique Arce
       基蒂·曼维尔 Kiti Manver
       胡安·费尔南德斯 Juan Fernández
       纳瓦·尼姆利 Najwa Nimri
       罗德里戈·德拉·塞尔纳 Rodrigo De la Serna
       霍威克·库区科利安 Hovik Keuchkerian
       费尔南多·卡约 Fernando Cayo
       帕科·图斯 Paco Tous
       达尔科.佩里克 Darko Peric
       马里奥·德·拉·罗萨 Mario de la Rosa
       阿希卡尔·阿兹科纳 Ahikar Azcona
       米克尔·布斯塔曼特 Mikel Bustamante

◎简  介

  教授和他的团队再次重聚,这次的目标是西班牙银行,他们将以大胆而危险的新计划解救里约。抵抗仍在继续。

Video
ID : 1
Format : HEVC
Format/Info : High Efficiency Video Coding
Format profile : Main 10@L5@Main
HDR format : Dolby Vision, Version 1.0, dvhe.08.06, BL+RPU, HDR10 compatible / SMPTE ST 2086, HDR10 compatible
Codec ID : V_MPEGH/ISO/HEVC
Duration : 58 min 29 s
Bit rate : 15.7 Mb/s
Width : 3 840 pixels
Height : 2 160 pixels
Display aspect ratio : 16:9
Frame rate mode : Constant
Frame rate : 24.000 FPS
Color space : YUV
Chroma subsampling : 4:2:0 (Type 2)
Bit depth : 10 bits
Bits/(Pixel*Frame) : 0.079
Stream size : 6.40 GiB (92%)
Default : Yes
Forced : No
Color range : Limited
Color primaries : BT.2020
Transfer characteristics : PQ
Matrix coefficients : BT.2020 non-constant
Mastering display color primaries : Display P3
Mastering display luminance : min: 0.0001 cd/m2, max: 1000 cd/m2
Maximum Content Light Level : 1068 cd/m2
Maximum Frame-Average Light Level : 296 cd/m2

Audio #1
ID : 2
Format : E-AC-3
Format/Info : Enhanced AC-3
Commercial name : Dolby Digital Plus
Codec ID : A_EAC3
Duration : 59 min 42 s
Bit rate mode : Constant
Bit rate : 640 kb/s
Channel(s) : 6 channels
Channel layout : L R C LFE Ls Rs
Sampling rate : 48.0 kHz
Frame rate : 31.250 FPS (1536 SPF)
Compression mode : Lossy
Stream size : 273 MiB (4%)
Title : European
Language : Spanish
Service kind : Complete Main
Default : Yes
Forced : No

Audio #2
ID : 3
Format : E-AC-3
Format/Info : Enhanced AC-3
Commercial name : Dolby Digital Plus
Codec ID : A_EAC3
Duration : 59 min 42 s
Bit rate mode : Constant
Bit rate : 640 kb/s
Channel(s) : 6 channels
Channel layout : L R C LFE Ls Rs
Sampling rate : 48.0 kHz
Frame rate : 31.250 FPS (1536 SPF)
Compression mode : Lossy
Stream size : 273 MiB (4%)
Language : English
Service kind : Complete Main
Default : Yes
Forced : No

Text #1
ID : 4
Format : UTF-8
Codec ID : S_TEXT/UTF8
Codec ID/Info : UTF-8 Plain Text
Duration : 56 min 37 s
Bit rate : 59 b/s
Frame rate : 0.241 FPS
Count of elements : 820
Stream size : 24.6 KiB (0%)
Language : English
Default : Yes
Forced : No

Text #2
ID : 5
Format : UTF-8
Codec ID : S_TEXT/UTF8
Codec ID/Info : UTF-8 Plain Text
Duration : 58 min 5 s
Bit rate : 64 b/s
Frame rate : 0.277 FPS
Count of elements : 966
Stream size : 27.3 KiB (0%)
Title : [CC]
Language : English
Default : No
Forced : No

Text #3
ID : 6
Format : UTF-8
Codec ID : S_TEXT/UTF8
Codec ID/Info : UTF-8 Plain Text
Duration : 56 min 44 s
Bit rate : 106 b/s
Frame rate : 0.260 FPS
Count of elements : 884
Stream size : 44.3 KiB (0%)
Language : Arabic
Default : No
Forced : No

Text #4
ID : 7
Format : UTF-8
Codec ID : S_TEXT/UTF8
Codec ID/Info : UTF-8 Plain Text
Duration : 56 min 45 s
Bit rate : 53 b/s
Frame rate : 0.260 FPS
Count of elements : 884
Stream size : 22.1 KiB (0%)
Language : Czech
Default : No
Forced : No

Text #5
ID : 8
Format : UTF-8
Codec ID : S_TEXT/UTF8
Codec ID/Info : UTF-8 Plain Text
Duration : 56 min 45 s
Bit rate : 53 b/s
Frame rate : 0.251 FPS
Count of elements : 855
Stream size : 22.1 KiB (0%)
Language : Danish
Default : No
Forced : No

Text #6
ID : 9
Format : UTF-8
Codec ID : S_TEXT/UTF8
Codec ID/Info : UTF-8 Plain Text
Duration : 56 min 44 s
Bit rate : 49 b/s
Frame rate : 0.259 FPS
Count of elements : 881
Stream size : 20.5 KiB (0%)
Language : German
Default : No
Forced : No

Text #7
ID : 10
Format : UTF-8
Codec ID : S_TEXT/UTF8
Codec ID/Info : UTF-8 Plain Text
Duration : 56 min 45 s
Bit rate : 92 b/s
Frame rate : 0.259 FPS
Count of elements : 883
Stream size : 38.3 KiB (0%)
Language : Greek
Default : No
Forced : No

Text #8
ID : 11
Format : UTF-8
Codec ID : S_TEXT/UTF8
Codec ID/Info : UTF-8 Plain Text
Duration : 56 min 50 s
Bit rate : 69 b/s
Frame rate : 0.280 FPS
Count of elements : 954
Stream size : 28.8 KiB (0%)
Title : European [CC]
Language : Spanish
Default : No
Forced : No

Text #9
ID : 12
Format : UTF-8
Codec ID : S_TEXT/UTF8
Codec ID/Info : UTF-8 Plain Text
Duration : 56 min 44 s
Bit rate : 52 b/s
Frame rate : 0.221 FPS
Count of elements : 753
Stream size : 21.6 KiB (0%)
Language : Finnish
Default : No
Forced : No

Text #10
ID : 13
Format : UTF-8
Codec ID : S_TEXT/UTF8
Codec ID/Info : UTF-8 Plain Text
Duration : 56 min 44 s
Bit rate : 53 b/s
Frame rate : 0.257 FPS
Count of elements : 876
Stream size : 22.3 KiB (0%)
Language : French
Default : No
Forced : No

Text #11
ID : 14
Format : UTF-8
Codec ID : S_TEXT/UTF8
Codec ID/Info : UTF-8 Plain Text
Duration : 56 min 44 s
Bit rate : 88 b/s
Frame rate : 0.260 FPS
Count of elements : 886
Stream size : 36.7 KiB (0%)
Language : Hebrew
Default : No
Forced : No

Text #12
ID : 15
Format : UTF-8
Codec ID : S_TEXT/UTF8
Codec ID/Info : UTF-8 Plain Text
Duration : 56 min 44 s
Bit rate : 47 b/s
Frame rate : 0.253 FPS
Count of elements : 862
Stream size : 19.9 KiB (0%)
Language : Croatian
Default : No
Forced : No

Text #13
ID : 16
Format : UTF-8
Codec ID : S_TEXT/UTF8
Codec ID/Info : UTF-8 Plain Text
Duration : 56 min 45 s
Bit rate : 50 b/s
Frame rate : 0.259 FPS
Count of elements : 881
Stream size : 21.1 KiB (0%)
Language : Hungarian
Default : No
Forced : No

Text #14
ID : 17
Format : UTF-8
Codec ID : S_TEXT/UTF8
Codec ID/Info : UTF-8 Plain Text
Duration : 56 min 45 s
Bit rate : 52 b/s
Frame rate : 0.260 FPS
Count of elements : 885
Stream size : 21.8 KiB (0%)
Language : Indonesian
Default : No
Forced : No

Text #15
ID : 18
Format : UTF-8
Codec ID : S_TEXT/UTF8
Codec ID/Info : UTF-8 Plain Text
Duration : 56 min 44 s
Bit rate : 54 b/s
Frame rate : 0.260 FPS
Count of elements : 886
Stream size : 22.7 KiB (0%)
Language : Italian
Default : No
Forced : No

Text #16
ID : 19
Format : UTF-8
Codec ID : S_TEXT/UTF8
Codec ID/Info : UTF-8 Plain Text
Duration : 56 min 45 s
Bit rate : 54 b/s
Frame rate : 0.249 FPS
Count of elements : 849
Stream size : 22.8 KiB (0%)
Language : Japanese
Default : No
Forced : No

Text #17
ID : 20
Format : UTF-8
Codec ID : S_TEXT/UTF8
Codec ID/Info : UTF-8 Plain Text
Duration : 56 min 44 s
Bit rate : 74 b/s
Frame rate : 0.260 FPS
Count of elements : 885
Stream size : 31.1 KiB (0%)
Language : Korean
Default : No
Forced : No

Text #18
ID : 21
Format : UTF-8
Codec ID : S_TEXT/UTF8
Codec ID/Info : UTF-8 Plain Text
Duration : 56 min 44 s
Bit rate : 52 b/s
Frame rate : 0.253 FPS
Count of elements : 860
Stream size : 21.8 KiB (0%)
Language : Malay
Default : No
Forced : No

Text #19
ID : 22
Format : UTF-8
Codec ID : S_TEXT/UTF8
Codec ID/Info : UTF-8 Plain Text
Duration : 56 min 45 s
Bit rate : 50 b/s
Frame rate : 0.257 FPS
Count of elements : 875
Stream size : 21.1 KiB (0%)
Language : Norwegian Bokmal
Default : No
Forced : No

Text #20
ID : 23
Format : UTF-8
Codec ID : S_TEXT/UTF8
Codec ID/Info : UTF-8 Plain Text
Duration : 56 min 44 s
Bit rate : 49 b/s
Frame rate : 0.256 FPS
Count of elements : 872
Stream size : 20.5 KiB (0%)
Language : Dutch
Default : No
Forced : No

Text #21
ID : 24
Format : UTF-8
Codec ID : S_TEXT/UTF8
Codec ID/Info : UTF-8 Plain Text
Duration : 56 min 44 s
Bit rate : 52 b/s
Frame rate : 0.260 FPS
Count of elements : 884
Stream size : 22.0 KiB (0%)
Language : Polish
Default : No
Forced : No

Text #22
ID : 25
Format : UTF-8
Codec ID : S_TEXT/UTF8
Codec ID/Info : UTF-8 Plain Text
Duration : 56 min 44 s
Bit rate : 52 b/s
Frame rate : 0.258 FPS
Count of elements : 879
Stream size : 22.0 KiB (0%)
Language : Portuguese
Default : No
Forced : No

Text #23
ID : 26
Format : UTF-8
Codec ID : S_TEXT/UTF8
Codec ID/Info : UTF-8 Plain Text
Duration : 56 min 45 s
Bit rate : 50 b/s
Frame rate : 0.260 FPS
Count of elements : 885
Stream size : 21.2 KiB (0%)
Title : Brazilian
Language : Portuguese
Default : No
Forced : No

Text #24
ID : 27
Format : UTF-8
Codec ID : S_TEXT/UTF8
Codec ID/Info : UTF-8 Plain Text
Duration : 56 min 45 s
Bit rate : 61 b/s
Frame rate : 0.259 FPS
Count of elements : 882
Stream size : 25.8 KiB (0%)
Language : Romanian
Default : No
Forced : No

Text #25
ID : 28
Format : UTF-8
Codec ID : S_TEXT/UTF8
Codec ID/Info : UTF-8 Plain Text
Duration : 56 min 44 s
Bit rate : 102 b/s
Frame rate : 0.261 FPS
Count of elements : 889
Stream size : 42.6 KiB (0%)
Language : Russian
Default : No
Forced : No

Text #26
ID : 29
Format : UTF-8
Codec ID : S_TEXT/UTF8
Codec ID/Info : UTF-8 Plain Text
Duration : 56 min 45 s
Bit rate : 52 b/s
Frame rate : 0.240 FPS
Count of elements : 818
Stream size : 22.0 KiB (0%)
Language : Swedish
Default : No
Forced : No

Text #27
ID : 30
Format : UTF-8
Codec ID : S_TEXT/UTF8
Codec ID/Info : UTF-8 Plain Text
Duration : 56 min 44 s
Bit rate : 147 b/s
Frame rate : 0.260 FPS
Count of elements : 884
Stream size : 61.2 KiB (0%)
Language : Thai
Default : No
Forced : No

Text #28
ID : 31
Format : UTF-8
Codec ID : S_TEXT/UTF8
Codec ID/Info : UTF-8 Plain Text
Duration : 56 min 44 s
Bit rate : 54 b/s
Frame rate : 0.259 FPS
Count of elements : 883
Stream size : 22.8 KiB (0%)
Language : Turkish
Default : No
Forced : No

Text #29
ID : 32
Format : UTF-8
Codec ID : S_TEXT/UTF8
Codec ID/Info : UTF-8 Plain Text
Duration : 58 min 17 s
Bit rate : 81 b/s
Frame rate : 0.247 FPS
Count of elements : 865
Stream size : 34.7 KiB (0%)
Language : Ukrainian
Default : No
Forced : No

Text #30
ID : 33
Format : UTF-8
Codec ID : S_TEXT/UTF8
Codec ID/Info : UTF-8 Plain Text
Duration : 56 min 45 s
Bit rate : 78 b/s
Frame rate : 0.258 FPS
Count of elements : 879
Stream size : 32.6 KiB (0%)
Language : Vietnamese
Default : No
Forced : No

Text #31
ID : 34
Format : UTF-8
Codec ID : S_TEXT/UTF8
Codec ID/Info : UTF-8 Plain Text
Duration : 56 min 44 s
Bit rate : 62 b/s
Frame rate : 0.260 FPS
Count of elements : 884
Stream size : 25.8 KiB (0%)
Title : 中文(简体)
Language : 中文
Default : No
Forced : No

Text #32
ID : 35
Format : UTF-8
Codec ID : S_TEXT/UTF8
Codec ID/Info : UTF-8 Plain Text
Duration : 56 min 45 s
Bit rate : 58 b/s
Frame rate : 0.260 FPS
Count of elements : 885
Stream size : 24.4 KiB (0%)
Title : 中文(繁体)
Language : 中文
Default : No
Forced : No




a8a8e6833ddfc4d1f512a3c99b555d16_副本.jpg


◎标  题 纸钞屋 第四季
◎译  名 纸房子(新 / 港 / 台) / House of Paper / Money Heist
◎片  名 La casa de papel Season 4
◎年  代 2020
◎产  地 西班牙
◎类  别 剧情 / 动作 / 悬疑 / 犯罪
◎语  言 西班牙语
◎上映日期 2020-04-03(西班牙)
◎IMDb评分 8.2/10 from 463411 users
◎IMDb链接 https://www.imdb.com/title/tt11312408/
◎豆瓣评分 9.0/10 from 20193 users
◎豆瓣链接 https://movie.douban.com/subject/34911053/
◎片  长 50分钟
◎导  演 亚历克斯·罗德里戈 Alex Rodrigo / 科尔多·塞拉 Koldo Serra / 嘉维尔·昆塔斯 Javier Quintas
◎编  剧 阿莱克斯·皮纳 Álex Pina / 哈维尔·戈麦斯·桑坦德 Javier Gómez Santander
◎演  员 乌苏拉·科尔维罗 Úrsula Corberó
       阿尔瓦罗·莫奇 Álvaro Morte
       伊西娅尔·伊图诺 Itziar Ituño
       佩德罗·阿隆索 Pedro Alonso
       阿尔巴·弗洛雷斯 Alba Flores
       米盖尔·赫尔南 Miguel Herrán
       海因米·洛伦特 Jaime Lorente
       埃丝特·阿塞博 Esther Acebo
       恩里克·阿尔切 Enrique Arce
       达尔科.佩里克 Darko Peric
       霍威克·库区科利安 Hovik Keuchkerian
       卢卡·佩洛斯 Luka Peros
       贝伦·奎斯塔 Belén Cuesta
       罗德里戈·德拉·塞尔纳 Rodrigo De la Serna
       纳瓦·尼姆利 Najwa Nimri
       阿希卡尔·阿兹科纳 Ahikar Azcona
       米克尔·布斯塔曼特 Mikel Bustamante


◎简  介


  《纸房子》第 4 部分在混乱中开始:教授认为里斯本已经被处决,里约和东京炸毁了一辆陆军坦克,内罗毕在生死之间挣扎。该团伙正在经历其最艰难的时刻之一,而敌人的崛起将会把抢劫行动置于严重的危险之中。


Video
ID : 1
Format : HEVC
Format/Info : High Efficiency Video Coding
Format profile : Main 10@L5@Main
HDR format : Dolby Vision, Version 1.0, dvhe.08.06, BL+RPU, HDR10 compatible / SMPTE ST 2086, HDR10 compatible
Codec ID : V_MPEGH/ISO/HEVC
Duration : 59 min 43 s
Bit rate : 15.6 Mb/s
Width : 3 840 pixels
Height : 2 160 pixels
Display aspect ratio : 16:9
Frame rate mode : Constant
Frame rate : 24.000 FPS
Color space : YUV
Chroma subsampling : 4:2:0 (Type 2)
Bit depth : 10 bits
Bits/(Pixel*Frame) : 0.079
Stream size : 6.52 GiB (92%)
Default : Yes
Forced : No
Color range : Limited
Color primaries : BT.2020
Transfer characteristics : PQ
Matrix coefficients : BT.2020 non-constant
Mastering display color primaries : Display P3
Mastering display luminance : min: 0.0001 cd/m2, max: 1000 cd/m2
Maximum Content Light Level : 1052 cd/m2
Maximum Frame-Average Light Level : 267 cd/m2

Audio #1
ID : 2
Format : E-AC-3
Format/Info : Enhanced AC-3
Commercial name : Dolby Digital Plus
Codec ID : A_EAC3
Duration : 1 h 1 min
Bit rate mode : Constant
Bit rate : 640 kb/s
Channel(s) : 6 channels
Channel layout : L R C LFE Ls Rs
Sampling rate : 48.0 kHz
Frame rate : 31.250 FPS (1536 SPF)
Compression mode : Lossy
Stream size : 281 MiB (4%)
Title : European
Language : Spanish
Service kind : Complete Main
Default : Yes
Forced : No

Audio #2
ID : 3
Format : E-AC-3
Format/Info : Enhanced AC-3
Commercial name : Dolby Digital Plus
Codec ID : A_EAC3
Duration : 1 h 1 min
Bit rate mode : Constant
Bit rate : 640 kb/s
Channel(s) : 6 channels
Channel layout : L R C LFE Ls Rs
Sampling rate : 48.0 kHz
Frame rate : 31.250 FPS (1536 SPF)
Compression mode : Lossy
Stream size : 281 MiB (4%)
Language : English
Service kind : Complete Main
Default : Yes
Forced : No

Text #1
ID : 4
Format : UTF-8
Codec ID : S_TEXT/UTF8
Codec ID/Info : UTF-8 Plain Text
Duration : 57 min 27 s
Bit rate : 59 b/s
Frame rate : 0.234 FPS
Count of elements : 807
Stream size : 24.9 KiB (0%)
Language : English
Default : Yes
Forced : No

Text #2
ID : 5
Format : UTF-8
Codec ID : S_TEXT/UTF8
Codec ID/Info : UTF-8 Plain Text
Duration : 59 min 24 s
Bit rate : 74 b/s
Frame rate : 0.279 FPS
Count of elements : 995
Stream size : 32.3 KiB (0%)
Title : [CC]
Language : English
Default : No
Forced : No

Text #3
ID : 6
Format : UTF-8
Codec ID : S_TEXT/UTF8
Codec ID/Info : UTF-8 Plain Text
Duration : 59 min 38 s
Bit rate : 99 b/s
Frame rate : 0.244 FPS
Count of elements : 872
Stream size : 43.3 KiB (0%)
Language : Arabic
Default : No
Forced : No

Text #4
ID : 7
Format : UTF-8
Codec ID : S_TEXT/UTF8
Codec ID/Info : UTF-8 Plain Text
Duration : 59 min 38 s
Bit rate : 54 b/s
Frame rate : 0.241 FPS
Count of elements : 864
Stream size : 23.8 KiB (0%)
Language : Czech
Default : No
Forced : No

Text #5
ID : 8
Format : UTF-8
Codec ID : S_TEXT/UTF8
Codec ID/Info : UTF-8 Plain Text
Duration : 59 min 38 s
Bit rate : 56 b/s
Frame rate : 0.236 FPS
Count of elements : 843
Stream size : 24.6 KiB (0%)
Language : Danish
Default : No
Forced : No

Text #6
ID : 9
Format : UTF-8
Codec ID : S_TEXT/UTF8
Codec ID/Info : UTF-8 Plain Text
Duration : 59 min 38 s
Bit rate : 57 b/s
Frame rate : 0.231 FPS
Count of elements : 827
Stream size : 25.3 KiB (0%)
Language : German
Default : No
Forced : No

Text #7
ID : 10
Format : UTF-8
Codec ID : S_TEXT/UTF8
Codec ID/Info : UTF-8 Plain Text
Duration : 59 min 38 s
Bit rate : 96 b/s
Frame rate : 0.242 FPS
Count of elements : 867
Stream size : 42.1 KiB (0%)
Language : Greek
Default : No
Forced : No

Text #8
ID : 11
Format : UTF-8
Codec ID : S_TEXT/UTF8
Codec ID/Info : UTF-8 Plain Text
Duration : 58 min 16 s
Bit rate : 68 b/s
Frame rate : 0.284 FPS
Count of elements : 994
Stream size : 29.3 KiB (0%)
Title : European [CC]
Language : Spanish
Default : No
Forced : No

Text #9
ID : 12
Format : UTF-8
Codec ID : S_TEXT/UTF8
Codec ID/Info : UTF-8 Plain Text
Duration : 59 min 38 s
Bit rate : 55 b/s
Frame rate : 0.184 FPS
Count of elements : 657
Stream size : 24.4 KiB (0%)
Language : Finnish
Default : No
Forced : No

Text #10
ID : 13
Format : UTF-8
Codec ID : S_TEXT/UTF8
Codec ID/Info : UTF-8 Plain Text
Duration : 59 min 27 s
Bit rate : 54 b/s
Frame rate : 0.236 FPS
Count of elements : 841
Stream size : 23.8 KiB (0%)
Language : French
Default : No
Forced : No

Text #11
ID : 14
Format : UTF-8
Codec ID : S_TEXT/UTF8
Codec ID/Info : UTF-8 Plain Text
Duration : 59 min 38 s
Bit rate : 92 b/s
Frame rate : 0.245 FPS
Count of elements : 878
Stream size : 40.3 KiB (0%)
Language : Hebrew
Default : No
Forced : No

Text #12
ID : 15
Format : UTF-8
Codec ID : S_TEXT/UTF8
Codec ID/Info : UTF-8 Plain Text
Duration : 59 min 38 s
Bit rate : 52 b/s
Frame rate : 0.243 FPS
Count of elements : 871
Stream size : 23.0 KiB (0%)
Language : Croatian
Default : No
Forced : No

Text #13
ID : 16
Format : UTF-8
Codec ID : S_TEXT/UTF8
Codec ID/Info : UTF-8 Plain Text
Duration : 59 min 38 s
Bit rate : 58 b/s
Frame rate : 0.226 FPS
Count of elements : 810
Stream size : 25.6 KiB (0%)
Language : Hungarian
Default : No
Forced : No

Text #14
ID : 17
Format : UTF-8
Codec ID : S_TEXT/UTF8
Codec ID/Info : UTF-8 Plain Text
Duration : 59 min 38 s
Bit rate : 58 b/s
Frame rate : 0.243 FPS
Count of elements : 869
Stream size : 25.5 KiB (0%)
Language : Indonesian
Default : No
Forced : No

Text #15
ID : 18
Format : UTF-8
Codec ID : S_TEXT/UTF8
Codec ID/Info : UTF-8 Plain Text
Duration : 59 min 38 s
Bit rate : 54 b/s
Frame rate : 0.243 FPS
Count of elements : 870
Stream size : 23.8 KiB (0%)
Language : Italian
Default : No
Forced : No

Text #16
ID : 19
Format : UTF-8
Codec ID : S_TEXT/UTF8
Codec ID/Info : UTF-8 Plain Text
Duration : 59 min 38 s
Bit rate : 53 b/s
Frame rate : 0.239 FPS
Count of elements : 856
Stream size : 23.6 KiB (0%)
Language : Japanese
Default : No
Forced : No

Text #17
ID : 20
Format : UTF-8
Codec ID : S_TEXT/UTF8
Codec ID/Info : UTF-8 Plain Text
Duration : 59 min 33 s
Bit rate : 73 b/s
Frame rate : 0.251 FPS
Count of elements : 897
Stream size : 32.2 KiB (0%)
Language : Korean
Default : No
Forced : No

Text #18
ID : 21
Format : UTF-8
Codec ID : S_TEXT/UTF8
Codec ID/Info : UTF-8 Plain Text
Duration : 59 min 38 s
Bit rate : 58 b/s
Frame rate : 0.238 FPS
Count of elements : 851
Stream size : 25.5 KiB (0%)
Language : Malay
Default : No
Forced : No

Text #19
ID : 22
Format : UTF-8
Codec ID : S_TEXT/UTF8
Codec ID/Info : UTF-8 Plain Text
Duration : 59 min 38 s
Bit rate : 54 b/s
Frame rate : 0.219 FPS
Count of elements : 785
Stream size : 23.6 KiB (0%)
Language : Norwegian Bokmal
Default : No
Forced : No

Text #20
ID : 23
Format : UTF-8
Codec ID : S_TEXT/UTF8
Codec ID/Info : UTF-8 Plain Text
Duration : 59 min 38 s
Bit rate : 52 b/s
Frame rate : 0.229 FPS
Count of elements : 818
Stream size : 22.7 KiB (0%)
Language : Dutch
Default : No
Forced : No

Text #21
ID : 24
Format : UTF-8
Codec ID : S_TEXT/UTF8
Codec ID/Info : UTF-8 Plain Text
Duration : 59 min 38 s
Bit rate : 52 b/s
Frame rate : 0.237 FPS
Count of elements : 849
Stream size : 22.7 KiB (0%)
Language : Polish
Default : No
Forced : No

Text #22
ID : 25
Format : UTF-8
Codec ID : S_TEXT/UTF8
Codec ID/Info : UTF-8 Plain Text
Duration : 59 min 38 s
Bit rate : 57 b/s
Frame rate : 0.242 FPS
Count of elements : 866
Stream size : 25.1 KiB (0%)
Language : Portuguese
Default : No
Forced : No

Text #23
ID : 26
Format : UTF-8
Codec ID : S_TEXT/UTF8
Codec ID/Info : UTF-8 Plain Text
Duration : 59 min 38 s
Bit rate : 54 b/s
Frame rate : 0.241 FPS
Count of elements : 861
Stream size : 23.7 KiB (0%)
Title : Brazilian
Language : Portuguese
Default : No
Forced : No

Text #24
ID : 27
Format : UTF-8
Codec ID : S_TEXT/UTF8
Codec ID/Info : UTF-8 Plain Text
Duration : 59 min 38 s
Bit rate : 65 b/s
Frame rate : 0.240 FPS
Count of elements : 857
Stream size : 28.5 KiB (0%)
Language : Romanian
Default : No
Forced : No

Text #25
ID : 28
Format : UTF-8
Codec ID : S_TEXT/UTF8
Codec ID/Info : UTF-8 Plain Text
Duration : 59 min 38 s
Bit rate : 92 b/s
Frame rate : 0.243 FPS
Count of elements : 868
Stream size : 40.5 KiB (0%)
Language : Russian
Default : No
Forced : No

Text #26
ID : 29
Format : UTF-8
Codec ID : S_TEXT/UTF8
Codec ID/Info : UTF-8 Plain Text
Duration : 59 min 38 s
Bit rate : 52 b/s
Frame rate : 0.233 FPS
Count of elements : 834
Stream size : 23.1 KiB (0%)
Language : Swedish
Default : No
Forced : No

Text #27
ID : 30
Format : UTF-8
Codec ID : S_TEXT/UTF8
Codec ID/Info : UTF-8 Plain Text
Duration : 59 min 38 s
Bit rate : 149 b/s
Frame rate : 0.246 FPS
Count of elements : 879
Stream size : 65.4 KiB (0%)
Language : Thai
Default : No
Forced : No

Text #28
ID : 31
Format : UTF-8
Codec ID : S_TEXT/UTF8
Codec ID/Info : UTF-8 Plain Text
Duration : 59 min 38 s
Bit rate : 57 b/s
Frame rate : 0.243 FPS
Count of elements : 869
Stream size : 25.0 KiB (0%)
Language : Turkish
Default : No
Forced : No

Text #29
ID : 32
Format : UTF-8
Codec ID : S_TEXT/UTF8
Codec ID/Info : UTF-8 Plain Text
Duration : 59 min 28 s
Bit rate : 90 b/s
Frame rate : 0.240 FPS
Count of elements : 858
Stream size : 39.4 KiB (0%)
Language : Ukrainian
Default : No
Forced : No

Text #30
ID : 33
Format : UTF-8
Codec ID : S_TEXT/UTF8
Codec ID/Info : UTF-8 Plain Text
Duration : 59 min 38 s
Bit rate : 78 b/s
Frame rate : 0.240 FPS
Count of elements : 858
Stream size : 34.1 KiB (0%)
Language : Vietnamese
Default : No
Forced : No

Text #31
ID : 34
Format : UTF-8
Codec ID : S_TEXT/UTF8
Codec ID/Info : UTF-8 Plain Text
Duration : 59 min 38 s
Bit rate : 59 b/s
Frame rate : 0.246 FPS
Count of elements : 879
Stream size : 26.0 KiB (0%)
Title : 中文(简体)
Language : 中文
Default : No
Forced : No

Text #32
ID : 35
Format : UTF-8
Codec ID : S_TEXT/UTF8
Codec ID/Info : UTF-8 Plain Text
Duration : 59 min 38 s
Bit rate : 59 b/s
Frame rate : 0.245 FPS
Count of elements : 877
Stream size : 26.1 KiB (0%)
Title : 中文(繁体)
Language : 中文
Default : No
Forced : No
下载地址:
第三季
游客,如果您要查看本帖隐藏内容请回复

游客,如果您要查看本帖隐藏内容请回复

第四季
游客,如果您要查看本帖隐藏内容请回复

游客,如果您要查看本帖隐藏内容请回复











上一篇:白线 [简繁中字] /White Lines(2020) 第一季全/4K高清版本下载
下一篇:大步向前走 [简繁粤中字] (2020) 第一季全/4K高清版本下载
回复

使用道具 举报

1

主题

1398

帖子

4030

积分

4K家园VIP

Rank: 9Rank: 9Rank: 9

积分
4030
发表于 2022-7-27 13:12:50 | 显示全部楼层
我只是路过,不发表意见
回复 支持 反对

使用道具 举报

40

主题

1513

帖子

4351

积分

4K家园VIP

Rank: 9Rank: 9Rank: 9

积分
4351
发表于 2022-7-27 13:12:51 | 显示全部楼层
撸过
回复 支持 反对

使用道具 举报

0

主题

8337

帖子

1万

积分

4K家园VIP

Rank: 9Rank: 9Rank: 9

积分
19391
发表于 2022-7-27 15:22:51 | 显示全部楼层
太好啦&萬分感謝版主的無私發佈分享%
回复 支持 反对

使用道具 举报

0

主题

129

帖子

884

积分

新手上路

Rank: 1

积分
884
发表于 2022-7-29 11:21:03 | 显示全部楼层
RE: 纸钞屋[简繁中字]/Money.Heist(2020)第三至四季全/4K高清版本下载 [修改]
回复 支持 反对

使用道具 举报

50

主题

1548

帖子

4480

积分

4K家园VIP

Rank: 9Rank: 9Rank: 9

积分
4480
发表于 2022-7-30 17:15:07 | 显示全部楼层
一直在看
回复 支持 反对

使用道具 举报

2

主题

1341

帖子

3837

积分

4K家园VIP

Rank: 9Rank: 9Rank: 9

积分
3837
发表于 2022-7-31 15:54:28 | 显示全部楼层
好帖必须得顶起
回复 支持 反对

使用道具 举报

2

主题

1200

帖子

3618

积分

4K家园VIP

Rank: 9Rank: 9Rank: 9

积分
3618
发表于 2022-8-1 17:19:37 | 显示全部楼层
路过的帮顶
回复 支持 反对

使用道具 举报

您需要登录后才可以回帖 登录 | 立即注册

本版积分规则

精彩图文
Archiver|手机版|TAG|Sitemap|新帖|专题|联系我们:邮箱: 4kjia.com@gmail.com   

4k家园   ©2019