大步向前走 [简繁粤中字] (2020) 第一季全/4K高清版本下载

[复制链接]

194

主题

217

帖子

2109

积分

版主

Rank: 7Rank: 7Rank: 7

积分
2109
 楼主| 发表于 2022-7-27 13:29:08 | 显示全部楼层 |阅读模式
本帖最后由 美剧小虾 于 2022-7-27 13:30 编辑

p2875413376_副本.jpg

◎译  名 大步向前走
◎片  名 Best Foot Forward
◎年  代 2022
◎产  地 美国
◎类  别 剧情/家庭
◎语  言 英语
◎上映日期 2022-07-22(美国)
◎IMDb评分 7.6/10 from 18 users
◎IMDb链接  https://www.imdb.com/title/tt20414738/
◎豆瓣评分 0/10 from 0 users
◎豆瓣链接 https://douban.com/subject/35955801/
◎主  演 斯蒂芬·施耐德 Stephen Schneider

◎简  介

  改编自残奥选手乔许李森德奎斯特 (Josh Sundquist) 真实故事,新锐童星罗根马米诺 (Logan Mamino) 出演,将其人生故事搬上荧幕的感人成长剧集

Video
ID : 1
Format : HEVC
Format/Info : High Efficiency Video Coding
Format profile : Main 10@L5@High
HDR format : SMPTE ST 2086, HDR10 compatible
Codec ID : V_MPEGH/ISO/HEVC
Duration : 26 min 20 s
Bit rate : 24.6 Mb/s
Width : 3 840 pixels
Height : 2 160 pixels
Display aspect ratio : 16:9
Frame rate mode : Constant
Frame rate : 23.976 (23976/1000) FPS
Color space : YUV
Chroma subsampling : 4:2:0 (Type 2)
Bit depth : 10 bits
Bits/(Pixel*Frame) : 0.124
Stream size : 4.52 GiB (97%)
Default : Yes
Forced : No
Color range : Limited
Color primaries : BT.2020
Transfer characteristics : PQ
Matrix coefficients : BT.2020 non-constant
Mastering display color primaries : Display P3
Mastering display luminance : min: 0.0050 cd/m2, max: 1000 cd/m2
Maximum Content Light Level : 1922 cd/m2
Maximum Frame-Average Light Level : 121 cd/m2

Audio
ID : 2
Format : E-AC-3 JOC
Format/Info : Enhanced AC-3 with Joint Object Coding
Commercial name : Dolby Digital Plus with Dolby Atmos
Codec ID : A_EAC3
Duration : 26 min 20 s
Bit rate mode : Constant
Bit rate : 768 kb/s
Channel(s) : 6 channels
Channel layout : L R C LFE Ls Rs
Sampling rate : 48.0 kHz
Frame rate : 31.250 FPS (1536 SPF)
Compression mode : Lossy
Stream size : 145 MiB (3%)
Language : English
Service kind : Complete Main
Default : Yes
Forced : No
Complexity index : 16
Number of dynamic objects : 15
Bed channel count : 1 channel
Bed channel configuration : LFE

Text #1
ID : 3
Format : UTF-8
Codec ID : S_TEXT/UTF8
Codec ID/Info : UTF-8 Plain Text
Duration : 23 min 41 s
Bit rate : 82 b/s
Frame rate : 0.281 FPS
Count of elements : 400
Stream size : 14.3 KiB (0%)
Language : English
Default : No
Forced : No

Text #2
ID : 4
Format : UTF-8
Codec ID : S_TEXT/UTF8
Codec ID/Info : UTF-8 Plain Text
Duration : 24 min 45 s
Bit rate : 94 b/s
Frame rate : 0.303 FPS
Count of elements : 450
Stream size : 17.2 KiB (0%)
Title : SDH
Language : English
Default : No
Forced : No

Text #3
ID : 5
Format : UTF-8
Codec ID : S_TEXT/UTF8
Codec ID/Info : UTF-8 Plain Text
Duration : 26 min 6 s
Bit rate : 108 b/s
Frame rate : 0.255 FPS
Count of elements : 400
Stream size : 20.7 KiB (0%)
Language : Arabic
Default : No
Forced : No

Text #4
ID : 6
Format : UTF-8
Codec ID : S_TEXT/UTF8
Codec ID/Info : UTF-8 Plain Text
Duration : 26 min 6 s
Bit rate : 99 b/s
Frame rate : 0.231 FPS
Count of elements : 362
Stream size : 19.0 KiB (0%)
Language : Bulgarian
Default : No
Forced : No

Text #5
ID : 7
Format : UTF-8
Codec ID : S_TEXT/UTF8
Codec ID/Info : UTF-8 Plain Text
Duration : 26 min 6 s
Bit rate : 71 b/s
Frame rate : 0.261 FPS
Count of elements : 408
Stream size : 13.6 KiB (0%)
Title : 中文(简体)
Language : 中文
Default : No
Forced : No

Text #6
ID : 8
Format : UTF-8
Codec ID : S_TEXT/UTF8
Codec ID/Info : UTF-8 Plain Text
Duration : 26 min 6 s
Bit rate : 67 b/s
Frame rate : 0.261 FPS
Count of elements : 409
Stream size : 12.9 KiB (0%)
Title : 中文(繁体)
Language : 中文
Default : No
Forced : No


Text #7
ID : 9
Format : UTF-8
Codec ID : S_TEXT/UTF8
Codec ID/Info : UTF-8 Plain Text
Duration : 26 min 6 s
Bit rate : 59 b/s
Frame rate : 0.240 FPS
Count of elements : 376
Stream size : 11.4 KiB (0%)
Language : Czech
Default : No
Forced : No

Text #8
ID : 10
Format : UTF-8
Codec ID : S_TEXT/UTF8
Codec ID/Info : UTF-8 Plain Text
Duration : 26 min 6 s
Bit rate : 66 b/s
Frame rate : 0.239 FPS
Count of elements : 375
Stream size : 12.7 KiB (0%)
Language : Danish
Default : No
Forced : No

Text #9
ID : 11
Format : UTF-8
Codec ID : S_TEXT/UTF8
Codec ID/Info : UTF-8 Plain Text
Duration : 26 min 12 s
Bit rate : 80 b/s
Frame rate : 0.259 FPS
Count of elements : 407
Stream size : 15.5 KiB (0%)
Language : German
Default : No
Forced : No

Text #10
ID : 12
Format : UTF-8
Codec ID : S_TEXT/UTF8
Codec ID/Info : UTF-8 Plain Text
Duration : 26 min 6 s
Bit rate : 112 b/s
Frame rate : 0.254 FPS
Count of elements : 397
Stream size : 21.6 KiB (0%)
Language : Greek
Default : No
Forced : No

Text #11
ID : 13
Format : UTF-8
Codec ID : S_TEXT/UTF8
Codec ID/Info : UTF-8 Plain Text
Duration : 26 min 6 s
Bit rate : 76 b/s
Frame rate : 0.262 FPS
Count of elements : 410
Stream size : 14.6 KiB (0%)
Title : Latin American
Language : Spanish
Default : No
Forced : No

Text #12
ID : 14
Format : UTF-8
Codec ID : S_TEXT/UTF8
Codec ID/Info : UTF-8 Plain Text
Duration : 26 min 6 s
Bit rate : 77 b/s
Frame rate : 0.261 FPS
Count of elements : 408
Stream size : 14.8 KiB (0%)
Title : European
Language : Spanish
Default : No
Forced : No

Text #13
ID : 15
Format : UTF-8
Codec ID : S_TEXT/UTF8
Codec ID/Info : UTF-8 Plain Text
Duration : 26 min 6 s
Bit rate : 65 b/s
Frame rate : 0.243 FPS
Count of elements : 380
Stream size : 12.6 KiB (0%)
Language : Estonian
Default : No
Forced : No

Text #14
ID : 16
Format : UTF-8
Codec ID : S_TEXT/UTF8
Codec ID/Info : UTF-8 Plain Text
Duration : 26 min 6 s
Bit rate : 64 b/s
Frame rate : 0.246 FPS
Count of elements : 385
Stream size : 12.3 KiB (0%)
Language : Finnish
Default : No
Forced : No

Text #15
ID : 17
Format : UTF-8
Codec ID : S_TEXT/UTF8
Codec ID/Info : UTF-8 Plain Text
Duration : 26 min 4 s
Bit rate : 65 b/s
Frame rate : 0.274 FPS
Count of elements : 429
Stream size : 12.6 KiB (0%)
Title : Canadian
Language : French
Default : No
Forced : No

Text #16
ID : 18
Format : UTF-8
Codec ID : S_TEXT/UTF8
Codec ID/Info : UTF-8 Plain Text
Duration : 26 min 4 s
Bit rate : 65 b/s
Frame rate : 0.274 FPS
Count of elements : 429
Stream size : 12.6 KiB (0%)
Language : French
Default : No
Forced : No

Text #17
ID : 19
Format : UTF-8
Codec ID : S_TEXT/UTF8
Codec ID/Info : UTF-8 Plain Text
Duration : 26 min 6 s
Bit rate : 101 b/s
Frame rate : 0.261 FPS
Count of elements : 409
Stream size : 19.4 KiB (0%)
Language : Hebrew
Default : No
Forced : No

Text #18
ID : 20
Format : UTF-8
Codec ID : S_TEXT/UTF8
Codec ID/Info : UTF-8 Plain Text
Duration : 26 min 6 s
Bit rate : 196 b/s
Frame rate : 0.261 FPS
Count of elements : 409
Stream size : 37.6 KiB (0%)
Language : Hindi
Default : No
Forced : No

Text #19
ID : 21
Format : UTF-8
Codec ID : S_TEXT/UTF8
Codec ID/Info : UTF-8 Plain Text
Duration : 26 min 6 s
Bit rate : 71 b/s
Frame rate : 0.259 FPS
Count of elements : 405
Stream size : 13.6 KiB (0%)
Language : Hungarian
Default : No
Forced : No

Text #20
ID : 22
Format : UTF-8
Codec ID : S_TEXT/UTF8
Codec ID/Info : UTF-8 Plain Text
Duration : 26 min 6 s
Bit rate : 78 b/s
Frame rate : 0.260 FPS
Count of elements : 407
Stream size : 15.1 KiB (0%)
Language : Indonesian
Default : No
Forced : No

Text #21
ID : 23
Format : UTF-8
Codec ID : S_TEXT/UTF8
Codec ID/Info : UTF-8 Plain Text
Duration : 26 min 6 s
Bit rate : 78 b/s
Frame rate : 0.261 FPS
Count of elements : 409
Stream size : 15.0 KiB (0%)
Language : Italian
Default : No
Forced : No

Text #22
ID : 24
Format : UTF-8
Codec ID : S_TEXT/UTF8
Codec ID/Info : UTF-8 Plain Text
Duration : 26 min 12 s
Bit rate : 70 b/s
Frame rate : 0.269 FPS
Count of elements : 423
Stream size : 13.5 KiB (0%)
Language : Japanese
Default : No
Forced : No

Text #23
ID : 25
Format : UTF-8
Codec ID : S_TEXT/UTF8
Codec ID/Info : UTF-8 Plain Text
Duration : 26 min 6 s
Bit rate : 80 b/s
Frame rate : 0.261 FPS
Count of elements : 409
Stream size : 15.3 KiB (0%)
Language : Korean
Default : No
Forced : No

Text #24
ID : 26
Format : UTF-8
Codec ID : S_TEXT/UTF8
Codec ID/Info : UTF-8 Plain Text
Duration : 26 min 6 s
Bit rate : 72 b/s
Frame rate : 0.259 FPS
Count of elements : 405
Stream size : 13.9 KiB (0%)
Language : Lithuanian
Default : No
Forced : No

Text #25
ID : 27
Format : UTF-8
Codec ID : S_TEXT/UTF8
Codec ID/Info : UTF-8 Plain Text
Duration : 26 min 6 s
Bit rate : 74 b/s
Frame rate : 0.253 FPS
Count of elements : 396
Stream size : 14.2 KiB (0%)
Language : Latvian
Default : No
Forced : No

Text #26
ID : 28
Format : UTF-8
Codec ID : S_TEXT/UTF8
Codec ID/Info : UTF-8 Plain Text
Duration : 26 min 6 s
Bit rate : 66 b/s
Frame rate : 0.261 FPS
Count of elements : 408
Stream size : 12.7 KiB (0%)
Language : Malay
Default : No
Forced : No

Text #27
ID : 29
Format : UTF-8
Codec ID : S_TEXT/UTF8
Codec ID/Info : UTF-8 Plain Text
Duration : 26 min 6 s
Bit rate : 57 b/s
Frame rate : 0.192 FPS
Count of elements : 301
Stream size : 11.0 KiB (0%)
Language : Dutch
Default : No
Forced : No

Text #28
ID : 30
Format : UTF-8
Codec ID : S_TEXT/UTF8
Codec ID/Info : UTF-8 Plain Text
Duration : 26 min 6 s
Bit rate : 66 b/s
Frame rate : 0.198 FPS
Count of elements : 310
Stream size : 12.8 KiB (0%)
Language : Norwegian
Default : No
Forced : No

Text #29
ID : 31
Format : UTF-8
Codec ID : S_TEXT/UTF8
Codec ID/Info : UTF-8 Plain Text
Duration : 26 min 6 s
Bit rate : 61 b/s
Frame rate : 0.246 FPS
Count of elements : 386
Stream size : 11.8 KiB (0%)
Language : Polish
Default : No
Forced : No

Text #30
ID : 32
Format : UTF-8
Codec ID : S_TEXT/UTF8
Codec ID/Info : UTF-8 Plain Text
Duration : 26 min 6 s
Bit rate : 58 b/s
Frame rate : 0.252 FPS
Count of elements : 395
Stream size : 11.2 KiB (0%)
Title : Brazilian
Language : Portuguese
Default : No
Forced : No

Text #31
ID : 33
Format : UTF-8
Codec ID : S_TEXT/UTF8
Codec ID/Info : UTF-8 Plain Text
Duration : 26 min 6 s
Bit rate : 65 b/s
Frame rate : 0.255 FPS
Count of elements : 399
Stream size : 12.5 KiB (0%)
Language : Portuguese
Default : No
Forced : No

Text #32
ID : 34
Format : UTF-8
Codec ID : S_TEXT/UTF8
Codec ID/Info : UTF-8 Plain Text
Duration : 26 min 12 s
Bit rate : 111 b/s
Frame rate : 0.260 FPS
Count of elements : 408
Stream size : 21.4 KiB (0%)
Language : Russian
Default : No
Forced : No

Text #33
ID : 35
Format : UTF-8
Codec ID : S_TEXT/UTF8
Codec ID/Info : UTF-8 Plain Text
Duration : 26 min 6 s
Bit rate : 63 b/s
Frame rate : 0.259 FPS
Count of elements : 405
Stream size : 12.2 KiB (0%)
Language : Slovak
Default : No
Forced : No

Text #34
ID : 36
Format : UTF-8
Codec ID : S_TEXT/UTF8
Codec ID/Info : UTF-8 Plain Text
Duration : 26 min 6 s
Bit rate : 57 b/s
Frame rate : 0.213 FPS
Count of elements : 333
Stream size : 11.0 KiB (0%)
Language : Slovenian
Default : No
Forced : No

Text #35
ID : 37
Format : UTF-8
Codec ID : S_TEXT/UTF8
Codec ID/Info : UTF-8 Plain Text
Duration : 26 min 6 s
Bit rate : 72 b/s
Frame rate : 0.237 FPS
Count of elements : 371
Stream size : 13.8 KiB (0%)
Language : Swedish
Default : No
Forced : No

Text #36
ID : 38
Format : UTF-8
Codec ID : S_TEXT/UTF8
Codec ID/Info : UTF-8 Plain Text
Duration : 26 min 6 s
Bit rate : 222 b/s
Frame rate : 0.261 FPS
Count of elements : 408
Stream size : 42.5 KiB (0%)
Language : Tamil
Default : No
Forced : No

Text #37
ID : 39
Format : UTF-8
Codec ID : S_TEXT/UTF8
Codec ID/Info : UTF-8 Plain Text
Duration : 26 min 6 s
Bit rate : 223 b/s
Frame rate : 0.261 FPS
Count of elements : 408
Stream size : 42.6 KiB (0%)
Language : Telugu
Default : No
Forced : No

Text #38
ID : 40
Format : UTF-8
Codec ID : S_TEXT/UTF8
Codec ID/Info : UTF-8 Plain Text
Duration : 26 min 6 s
Bit rate : 181 b/s
Frame rate : 0.261 FPS
Count of elements : 408
Stream size : 34.7 KiB (0%)
Language : Thai
Default : No
Forced : No

Text #39
ID : 41
Format : UTF-8
Codec ID : S_TEXT/UTF8
Codec ID/Info : UTF-8 Plain Text
Duration : 26 min 6 s
Bit rate : 73 b/s
Frame rate : 0.259 FPS
Count of elements : 406
Stream size : 14.0 KiB (0%)
Language : Turkish
Default : No
Forced : No

Text #40
ID : 42
Format : UTF-8
Codec ID : S_TEXT/UTF8
Codec ID/Info : UTF-8 Plain Text
Duration : 26 min 6 s
Bit rate : 101 b/s
Frame rate : 0.261 FPS
Count of elements : 409
Stream size : 19.5 KiB (0%)
Language : Ukrainian
Default : No
Forced : No

Text #41
ID : 43
Format : UTF-8
Codec ID : S_TEXT/UTF8
Codec ID/Info : UTF-8 Plain Text
Duration : 26 min 6 s
Bit rate : 98 b/s
Frame rate : 0.261 FPS
Count of elements : 409
Stream size : 18.7 KiB (0%)
Language : Vietnamese
Default : No
Forced : No

Text #42
ID : 44
Format : UTF-8
Codec ID : S_TEXT/UTF8
Codec ID/Info : UTF-8 Plain Text
Duration : 26 min 6 s
Bit rate : 66 b/s
Frame rate : 0.261 FPS
Count of elements : 409
Stream size : 12.7 KiB (0%)
Title : 中文(粤语)
Language : 中文
Default : No
Forced : No

下载地址:

游客,如果您要查看本帖隐藏内容请回复

游客,如果您要查看本帖隐藏内容请回复





上一篇:纸钞屋[简繁中字]/Money.Heist(2020)第三至四季全/4K高清版本下载
下一篇:老头子 / The Old Man (2022) 第一季全/4K高清版本下载
回复

使用道具 举报

59

主题

1570

帖子

4506

积分

4K家园VIP

Rank: 9Rank: 9Rank: 9

积分
4506
发表于 2022-7-27 13:31:03 来自手机 | 显示全部楼层
锄禾日当午,发帖真辛苦。谁知坛中餐,帖帖皆辛苦!
回复 支持 反对

使用道具 举报

0

主题

8337

帖子

1万

积分

4K家园VIP

Rank: 9Rank: 9Rank: 9

积分
19391
发表于 2022-7-27 15:22:28 | 显示全部楼层
太好啦&萬分感謝版主的無私發佈分享%
回复 支持 反对

使用道具 举报

5

主题

1483

帖子

4281

积分

4K家园VIP

Rank: 9Rank: 9Rank: 9

积分
4281
发表于 2022-7-28 07:46:16 来自手机 | 显示全部楼层
报告!别开枪,我就是路过来看看的。。。
回复 支持 反对

使用道具 举报

5

主题

1684

帖子

4630

积分

4K家园VIP

Rank: 9Rank: 9Rank: 9

积分
4630
发表于 2022-7-28 15:25:37 | 显示全部楼层
看起来不错
回复 支持 反对

使用道具 举报

53

主题

1514

帖子

4412

积分

4K家园VIP

Rank: 9Rank: 9Rank: 9

积分
4412
发表于 2022-8-3 15:21:36 | 显示全部楼层
好帖必须得顶起
回复 支持 反对

使用道具 举报

41

主题

1542

帖子

4402

积分

4K家园VIP

Rank: 9Rank: 9Rank: 9

积分
4402
发表于 2022-8-4 02:03:19 | 显示全部楼层
这么强,支持楼主,佩服
回复 支持 反对

使用道具 举报

您需要登录后才可以回帖 登录 | 立即注册

本版积分规则

精彩图文
Archiver|手机版|TAG|Sitemap|新帖|专题|联系我们:邮箱: 4kjia.com@gmail.com   

4k家园   ©2019