[4K电影] 不好 [简繁粤中字] / Not Okay (2022) 4K高清版本下载

[复制链接]

2163

主题

2306

帖子

1万

积分

超级版主

Rank: 8Rank: 8

积分
16861
 楼主| 发表于 2022-7-29 21:06:34 | 显示全部楼层 |阅读模式

QQ图片20220729204829_副本.png

◎标  题 不好
◎译  名 不OK
◎片  名 Not Okay
◎年  代 2022
◎产  地 美国
◎类  别 剧情 / 喜剧
◎语  言 英语
◎上映日期 2022-07-29(美国网络)
◎IMDb评分 5.7/10 from 37 users
◎IMDb链接 https://www.imdb.com/title/tt14814040/
◎豆瓣评分 0/10 from 0 users
◎豆瓣链接 https://movie.douban.com/subject/35552062/
◎片  长 100分钟
◎导  演 奎恩·谢法德 Quinn Shephard
◎编  剧 奎恩·谢法德 Quinn Shephard
◎演  员 佐伊·达奇 Zoey Deutch
       迪伦·奥布莱恩 Dylan O'Brien
       艾伯丝·戴维兹 Embeth Davidtz
       布雷南·布朗 Brennan Brown
       卡兰·索尼 Karan Soni
       米娅·伊萨克 Mia Isaac
       莎拉·亚金 Sarah Yarkin
       纳迪娅·亚历山大 Nadia Alexander
       布莱斯·科里根 Blaise Corrigan
       洛根·克劳福德 Logan Crawford
       卡皮尔·巴瓦 Kapil Bawa
       柯克·怀特 Kirk White



◎简  介


  讲述一个误入歧途的年轻女子渴望朋友和名声,她假装去巴黎旅行,以提升自己在社交媒体上的形象。当现实世界突然发生了一个可怕的事件、成为她假想旅行的一部分,她善意的谎言成为了道德困境,给予她想要的所有关注。

Video
ID : 1
Format : HEVC
Format/Info : High Efficiency Video Coding
Format profile : Main 10@L5@High
HDR format : Dolby Vision, Version 1.0, dvhe.05.06, BL+RPU
Codec ID : V_MPEGH/ISO/HEVC
Duration : 1 h 42 min
Bit rate : 16.6 Mb/s
Width : 3 840 pixels
Height : 2 160 pixels
Display aspect ratio : 16:9
Frame rate mode : Constant
Frame rate : 24.000 FPS
Color space : YUV
Chroma subsampling : 4:2:0
Bit depth : 10 bits
Bits/(Pixel*Frame) : 0.083
Stream size : 11.9 GiB (98%)
Language : English
Default : Yes
Forced : No
Color range : Full

Audio
ID : 2
Format : E-AC-3
Format/Info : Enhanced AC-3
Commercial name : Dolby Digital Plus
Codec ID : A_EAC3
Duration : 1 h 42 min
Bit rate mode : Constant
Bit rate : 256 kb/s
Channel(s) : 6 channels
Channel layout : L R C LFE Ls Rs
Sampling rate : 48.0 kHz
Frame rate : 31.250 FPS (1536 SPF)
Compression mode : Lossy
Stream size : 188 MiB (2%)
Language : English
Service kind : Complete Main
Default : Yes
Forced : No

Text #1
ID : 3
Format : UTF-8
Codec ID : S_TEXT/UTF8
Codec ID/Info : UTF-8 Plain Text
Duration : 1 h 41 min
Bit rate : 78 b/s
Frame rate : 0.263 FPS
Count of elements : 1600
Stream size : 58.5 KiB (0%)
Title : English (SDH)
Language : English
Default : No
Forced : No

Text #2
ID : 4
Format : UTF-8
Codec ID : S_TEXT/UTF8
Codec ID/Info : UTF-8 Plain Text
Duration : 1 h 42 min
Bit rate : 59 b/s
Frame rate : 0.217 FPS
Count of elements : 1336
Stream size : 44.8 KiB (0%)
Title : Čeština
Language : Czech
Default : No
Forced : No

Text #3
ID : 5
Format : UTF-8
Codec ID : S_TEXT/UTF8
Codec ID/Info : UTF-8 Plain Text
Duration : 1 h 42 min
Bit rate : 57 b/s
Frame rate : 0.223 FPS
Count of elements : 1375
Stream size : 43.3 KiB (0%)
Title : Dansk
Language : Danish
Default : No
Forced : No

Text #4
ID : 6
Format : UTF-8
Codec ID : S_TEXT/UTF8
Codec ID/Info : UTF-8 Plain Text
Duration : 1 h 42 min
Bit rate : 61 b/s
Frame rate : 0.217 FPS
Count of elements : 1336
Stream size : 46.1 KiB (0%)
Title : Deutsch
Language : German
Default : No
Forced : No

Text #5
ID : 7
Format : UTF-8
Codec ID : S_TEXT/UTF8
Codec ID/Info : UTF-8 Plain Text
Duration : 1 h 42 min
Bit rate : 100 b/s
Frame rate : 0.226 FPS
Count of elements : 1392
Stream size : 75.5 KiB (0%)
Title : Greek
Language : Greek
Default : No
Forced : No

Text #6
ID : 8
Format : UTF-8
Codec ID : S_TEXT/UTF8
Codec ID/Info : UTF-8 Plain Text
Duration : 1 h 42 min
Bit rate : 61 b/s
Frame rate : 0.219 FPS
Count of elements : 1348
Stream size : 46.3 KiB (0%)
Title : Español
Language : Spanish
Default : No
Forced : No

Text #7
ID : 9
Format : UTF-8
Codec ID : S_TEXT/UTF8
Codec ID/Info : UTF-8 Plain Text
Duration : 1 h 42 min
Bit rate : 61 b/s
Frame rate : 0.216 FPS
Count of elements : 1331
Stream size : 46.1 KiB (0%)
Title : Español (Latinoamericano)
Language : Spanish
Default : No
Forced : No

Text #8
ID : 10
Format : UTF-8
Codec ID : S_TEXT/UTF8
Codec ID/Info : UTF-8 Plain Text
Duration : 1 h 42 min
Bit rate : 60 b/s
Frame rate : 0.225 FPS
Count of elements : 1384
Stream size : 45.7 KiB (0%)
Title : Suomi
Language : Finnish
Default : No
Forced : No

Text #9
ID : 11
Format : UTF-8
Codec ID : S_TEXT/UTF8
Codec ID/Info : UTF-8 Plain Text
Duration : 1 h 42 min
Bit rate : 64 b/s
Frame rate : 0.224 FPS
Count of elements : 1379
Stream size : 48.8 KiB (0%)
Title : Français
Language : French
Default : No
Forced : No

Text #10
ID : 12
Format : UTF-8
Codec ID : S_TEXT/UTF8
Codec ID/Info : UTF-8 Plain Text
Duration : 1 h 42 min
Bit rate : 62 b/s
Frame rate : 0.222 FPS
Count of elements : 1365
Stream size : 46.7 KiB (0%)
Title : Magyar
Language : Hungarian
Default : No
Forced : No

Text #11
ID : 13
Format : UTF-8
Codec ID : S_TEXT/UTF8
Codec ID/Info : UTF-8 Plain Text
Duration : 1 h 42 min
Bit rate : 53 b/s
Frame rate : 0.214 FPS
Count of elements : 1320
Stream size : 40.0 KiB (0%)
Title : Italiano
Language : Italian
Default : No
Forced : No

Text #12
ID : 14
Format : UTF-8
Codec ID : S_TEXT/UTF8
Codec ID/Info : UTF-8 Plain Text
Duration : 1 h 42 min
Bit rate : 53 b/s
Frame rate : 0.228 FPS
Count of elements : 1404
Stream size : 40.1 KiB (0%)
Title : Japanese
Language : Japanese
Default : No
Forced : No

Text #13
ID : 15
Format : UTF-8
Codec ID : S_TEXT/UTF8
Codec ID/Info : UTF-8 Plain Text
Duration : 1 h 42 min
Bit rate : 66 b/s
Frame rate : 0.230 FPS
Count of elements : 1417
Stream size : 50.1 KiB (0%)
Title : Korean
Language : Korean
Default : No
Forced : No

Text #14
ID : 16
Format : UTF-8
Codec ID : S_TEXT/UTF8
Codec ID/Info : UTF-8 Plain Text
Duration : 1 h 42 min
Bit rate : 52 b/s
Frame rate : 0.167 FPS
Count of elements : 1031
Stream size : 39.8 KiB (0%)
Title : Nederlands
Language : Dutch
Default : No
Forced : No

Text #15
ID : 17
Format : UTF-8
Codec ID : S_TEXT/UTF8
Codec ID/Info : UTF-8 Plain Text
Duration : 1 h 42 min
Bit rate : 59 b/s
Frame rate : 0.181 FPS
Count of elements : 1113
Stream size : 44.8 KiB (0%)
Title : Norsk
Language : Norwegian
Default : No
Forced : No

Text #16
ID : 18
Format : UTF-8
Codec ID : S_TEXT/UTF8
Codec ID/Info : UTF-8 Plain Text
Duration : 1 h 42 min
Bit rate : 56 b/s
Frame rate : 0.218 FPS
Count of elements : 1343
Stream size : 42.3 KiB (0%)
Title : Polski
Language : Polish
Default : No
Forced : No

Text #17
ID : 19
Format : UTF-8
Codec ID : S_TEXT/UTF8
Codec ID/Info : UTF-8 Plain Text
Duration : 1 h 42 min
Bit rate : 59 b/s
Frame rate : 0.223 FPS
Count of elements : 1373
Stream size : 44.6 KiB (0%)
Title : Português (Brasil)
Language : Portuguese
Default : No
Forced : No

Text #18
ID : 20
Format : UTF-8
Codec ID : S_TEXT/UTF8
Codec ID/Info : UTF-8 Plain Text
Duration : 1 h 42 min
Bit rate : 59 b/s
Frame rate : 0.226 FPS
Count of elements : 1393
Stream size : 45.0 KiB (0%)
Title : Português
Language : Portuguese
Default : No
Forced : No

Text #19
ID : 21
Format : UTF-8
Codec ID : S_TEXT/UTF8
Codec ID/Info : UTF-8 Plain Text
Duration : 1 h 42 min
Bit rate : 59 b/s
Frame rate : 0.217 FPS
Count of elements : 1338
Stream size : 45.1 KiB (0%)
Title : Română
Language : Romanian
Default : No
Forced : No

Text #20
ID : 22
Format : UTF-8
Codec ID : S_TEXT/UTF8
Codec ID/Info : UTF-8 Plain Text
Duration : 1 h 42 min
Bit rate : 62 b/s
Frame rate : 0.221 FPS
Count of elements : 1363
Stream size : 46.9 KiB (0%)
Title : Slovenčina
Language : Slovak
Default : No
Forced : No

Text #21
ID : 23
Format : UTF-8
Codec ID : S_TEXT/UTF8
Codec ID/Info : UTF-8 Plain Text
Duration : 1 h 42 min
Bit rate : 58 b/s
Frame rate : 0.226 FPS
Count of elements : 1390
Stream size : 43.9 KiB (0%)
Title : Svenska
Language : Swedish
Default : No
Forced : No

Text #22
ID : 24
Format : UTF-8
Codec ID : S_TEXT/UTF8
Codec ID/Info : UTF-8 Plain Text
Duration : 1 h 42 min
Bit rate : 67 b/s
Frame rate : 0.229 FPS
Count of elements : 1409
Stream size : 50.6 KiB (0%)
Title : Türkçe
Language : Turkish
Default : No
Forced : No

Text #23
ID : 25
Format : UTF-8
Codec ID : S_TEXT/UTF8
Codec ID/Info : UTF-8 Plain Text
Duration : 1 h 42 min
Bit rate : 59 b/s
Frame rate : 0.228 FPS
Count of elements : 1405
Stream size : 44.6 KiB (0%)
Title : 中文(简体)
Language : 中文
Default : No
Forced : No

Text #24
ID : 26
Format : UTF-8
Codec ID : S_TEXT/UTF8
Codec ID/Info : UTF-8 Plain Text
Duration : 1 h 42 min
Bit rate : 58 b/s
Frame rate : 0.230 FPS
Count of elements : 1414
Stream size : 43.8 KiB (0%)
Title : 中文(繁体)
Language : 中文
Default : No
Forced : No


资源速度为零或资源敏感被和谐时,推荐使用qBittorrent等下载软件,有条件的推荐115更好的下载软件!

下载地址:


游客,如果您要查看本帖隐藏内容请回复

游客,如果您要查看本帖隐藏内容请回复

游客,如果您要查看本帖隐藏内容请回复

游客,如果您要查看本帖隐藏内容请回复





上一篇:灰影人 [简体中字] / The Gray Man (2022) 4K高清版本下载
下一篇:天堂高速 / Paradise Highway (2022) 4K高清版本下载
回复

使用道具 举报

1

主题

1329

帖子

4007

积分

4K家园VIP

Rank: 9Rank: 9Rank: 9

积分
4007
发表于 2022-7-29 21:06:39 | 显示全部楼层
好像还可以
回复 支持 反对

使用道具 举报

1

主题

1272

帖子

3832

积分

4K家园VIP

Rank: 9Rank: 9Rank: 9

积分
3832
发表于 2022-7-29 21:51:12 | 显示全部楼层
我了个去,顶了
回复 支持 反对

使用道具 举报

48

主题

1510

帖子

4348

积分

4K家园VIP

Rank: 9Rank: 9Rank: 9

积分
4348
发表于 2022-7-29 21:52:42 | 显示全部楼层
前排顶,很好!
回复 支持 反对

使用道具 举报

3

主题

1393

帖子

4203

积分

4K家园VIP

Rank: 9Rank: 9Rank: 9

积分
4203
发表于 2022-7-29 22:42:06 | 显示全部楼层
我只是路过,不发表意见
回复 支持 反对

使用道具 举报

50

主题

1495

帖子

4257

积分

4K家园VIP

Rank: 9Rank: 9Rank: 9

积分
4257
发表于 2022-7-29 23:09:19 | 显示全部楼层
佩服佩服!
回复 支持 反对

使用道具 举报

0

主题

1

帖子

10

积分

新手上路

Rank: 1

积分
10
发表于 2022-7-31 12:32:25 | 显示全部楼层
我来看看,这部片子如何
回复 支持 反对

使用道具 举报

您需要登录后才可以回帖 登录 | 立即注册

本版积分规则

精彩图文
Archiver|手机版|TAG|Sitemap|新帖|专题|联系我们:邮箱: 4kjia.com@gmail.com   

4k家园   ©2019