[4K电影] 天堂高速 / Paradise Highway (2022) 4K高清版本下载

[复制链接]

2163

主题

2306

帖子

1万

积分

超级版主

Rank: 8Rank: 8

积分
16861
 楼主| 发表于 2022-7-29 21:12:38 | 显示全部楼层 |阅读模式
QQ图片20220729204941_副本.png

◎译  名 天堂高速/天堂高速公路/Leila M.
◎片  名 Paradise Highway
◎年  代 2022
◎产  地 德国/美国
◎类  别 惊悚
◎语  言 英语
◎上映日期 2022-07-29(美国)
◎IMDb评分 6.5/10 from 8 users
◎IMDb链接 https://www.imdb.com/title/tt7469828/
◎豆瓣评分 0/10 from 0 users
◎豆瓣链接 https://movie.douban.com/subject/35511246/
◎导  演 Anna Gutto Anna Gutto
◎编  剧 Anna Gutto Anna Gutto
◎主  演 摩根·弗里曼 Morgan Freeman
       朱丽叶·比诺什 Juliette Binoche
       弗兰克·格里罗 Frank Grillo
       卡梅隆·莫纳汉 Cameron Monaghan
       克里丝蒂安·赛德尔 Christiane Seidel
       维罗尼卡·费瑞尔 Veronica Ferres
       杰基·达拉斯 Jackie Dallas
       哈拉·芬利 Hala Finley
       托米·厄尔·詹金斯 Tommie Earl Jenkins
       朱万达斯·坎迪斯 Jwaundace Candece
       贾登·汉密尔顿 Jayden Hamilton
       迪瓦·泰勒 Diva Tyler
       特蕾茜普弗 Tracy Pfau
       吉姆·多尔蒂 Jim Dougherty
       雷蒙德·麦纳利 Raymond McAnally
       朱迪·迪克森 Judy Dickerson
       詹姆斯·维克托·布莱恩 James Victor Bulian
       蒂姆·坦纳 Tim Tanner


◎简  介


          一名卡车司机被迫走私非法货物,以从一个致命的监狱帮派中解救她的兄弟。随着FBI特工对她的追踪,萨利的良心当最后一个包裹被证明是一个十几岁的女孩时,她受到了挑战。

Video
ID : 1
Format : HEVC
Format/Info : High Efficiency Video Coding
Format profile : Main 10@L5@High
Codec ID : V_MPEGH/ISO/HEVC
Duration : 1 h 54 min
Bit rate : 12.0 Mb/s
Width : 3 828 pixels
Height : 1 596 pixels
Display aspect ratio : 2.40:1
Frame rate mode : Constant
Frame rate : 23.976 FPS
Color space : YUV
Chroma subsampling : 4:2:0
Bit depth : 10 bits
Bits/(Pixel*Frame) : 0.082
Stream size : 9.65 GiB (97%)
Language : English
Default : Yes
Forced : No
Color range : Limited
Color primaries : BT.709
Transfer characteristics : BT.709
Matrix coefficients : BT.709

Audio
ID : 2
Format : AC-3
Format/Info : Audio Coding 3
Commercial name : Dolby Digital
Codec ID : A_AC3
Duration : 1 h 54 min
Bit rate mode : Constant
Bit rate : 384 kb/s
Channel(s) : 6 channels
Channel layout : L R C LFE Ls Rs
Sampling rate : 48.0 kHz
Frame rate : 31.250 FPS (1536 SPF)
Compression mode : Lossy
Stream size : 315 MiB (3%)
Language : English
Service kind : Complete Main
Default : Yes
Forced : No

Text #1
ID : 3
Format : UTF-8
Codec ID : S_TEXT/UTF8
Codec ID/Info : UTF-8 Plain Text
Duration : 1 h 52 min
Bit rate : 49 b/s
Frame rate : 0.190 FPS
Count of elements : 1287
Stream size : 40.9 KiB (0%)
Title : SDH
Language : English
Default : No
Forced : No

Text #2
ID : 4
Format : UTF-8
Codec ID : S_TEXT/UTF8
Codec ID/Info : UTF-8 Plain Text
Duration : 1 h 48 min
Bit rate : 44 b/s
Frame rate : 0.168 FPS
Count of elements : 1088
Stream size : 35.4 KiB (0%)
Language : English
Default : No
Forced : No

Menu
00:00:00.000 : Chapter 01
00:15:18.376 : Chapter 02
00:31:48.241 : Chapter 03
00:49:40.438 : Chapter 04
01:00:25.375 : Chapter 05
01:17:09.004 : Chapter 06
01:33:48.920 : Chapter 07
01:50:01.518 : Chapter 08

资源速度为零或资源敏感被和谐时,推荐使用qBittorrent等下载软件,有条件的推荐115更好的下载软件!

下载地址:

游客,如果您要查看本帖隐藏内容请回复





上一篇:不好 [简繁粤中字] / Not Okay (2022) 4K高清版本下载
下一篇:暗礁狂鲨 / The Reef: Stalked (2022) 4K高清版本下载
回复

使用道具 举报

42

主题

1527

帖子

4393

积分

4K家园VIP

Rank: 9Rank: 9Rank: 9

积分
4393
发表于 2022-7-29 21:12:42 来自手机 | 显示全部楼层
4K家园资源不错,前排支持
回复 支持 反对

使用道具 举报

0

主题

14

帖子

59

积分

新手上路

Rank: 1

积分
59
发表于 2022-7-30 20:00:49 | 显示全部楼层
标准4K
回复

使用道具 举报

48

主题

1537

帖子

4483

积分

4K家园VIP

Rank: 9Rank: 9Rank: 9

积分
4483
发表于 2022-7-31 14:49:20 来自手机 | 显示全部楼层
very good
回复 支持 反对

使用道具 举报

2

主题

1481

帖子

4247

积分

4K家园VIP

Rank: 9Rank: 9Rank: 9

积分
4247
发表于 2022-8-1 03:55:37 | 显示全部楼层
鼎力支持!!
回复 支持 反对

使用道具 举报

201

主题

1748

帖子

4806

积分

4K家园VIP

Rank: 9Rank: 9Rank: 9

积分
4806
发表于 2022-8-6 16:11:19 | 显示全部楼层
分享的不错,希望楼主继续分享
回复 支持 反对

使用道具 举报

1

主题

1216

帖子

3670

积分

4K家园VIP

Rank: 9Rank: 9Rank: 9

积分
3670
发表于 2022-8-8 11:33:51 来自手机 | 显示全部楼层
正好需要啊
回复 支持 反对

使用道具 举报

您需要登录后才可以回帖 登录 | 立即注册

本版积分规则

精彩图文
Archiver|手机版|TAG|Sitemap|新帖|专题|联系我们:邮箱: 4kjia.com@gmail.com   

4k家园   ©2019