[4K电影] 暗礁狂鲨 / The Reef: Stalked (2022) 4K高清版本下载

[复制链接]

2163

主题

2306

帖子

1万

积分

超级版主

Rank: 8Rank: 8

积分
16861
 楼主| 发表于 2022-7-29 21:18:23 | 显示全部楼层 |阅读模式
QQ图片20220729205243_副本.png

◎标  题 暗礁狂鲨
◎片  名 The Reef: Stalked
◎年  代 2021
◎产  地 澳大利亚
◎类  别 惊悚
◎语  言 英语
◎IMDb评分 3.7/10 from 710 users
◎IMDb链接 https://www.imdb.com/title/tt12735282/
◎豆瓣评分 0/10 from 0 users
◎豆瓣链接 https://movie.douban.com/subject/35624810/
◎导  演 安德鲁·陶克吉 Andrew Traucki
◎编  剧 安德鲁·陶克吉 Andrew Traucki
◎演  员 特蕾莎·莉安 Teressa Liane
                   安·特朗 Ann Truong
                   萨斯基亚·阿彻 Saskia Archer
                   凯特·李斯特 Kate Lister
                   蒂姆·罗斯 Tim Ross


◎简  介

  在她姐姐被杀后,尼克、她的妹妹和两个朋友通过太平洋岛屿的皮划艇探险寻求慰藉。在旅行的几个小时里,这些女人被鲨鱼跟踪,她们必须团结起来,面对恐惧,互相拯救。
Video
ID : 1
Format : HEVC
Format/Info : High Efficiency Video Coding
Format profile : Main 10@L5@High
Codec ID : V_MPEGH/ISO/HEVC
Duration : 1 h 32 min
Bit rate : 11.6 Mb/s
Width : 3 836 pixels
Height : 1 600 pixels
Display aspect ratio : 2.40:1
Original display aspect ratio : 2.40:1
Frame rate mode : Constant
Frame rate : 23.976 FPS
Color space : YUV
Chroma subsampling : 4:2:0
Bit depth : 10 bits
Bits/(Pixel*Frame) : 0.079
Stream size : 7.48 GiB (97%)
Default : Yes
Forced : No
Color range : Limited
Color primaries : BT.709
Transfer characteristics : BT.709
Matrix coefficients : BT.709

Audio
ID : 2
Format : AC-3
Format/Info : Audio Coding 3
Commercial name : Dolby Digital
Codec ID : A_AC3
Duration : 1 h 32 min
Bit rate mode : Constant
Bit rate : 384 kb/s
Channel(s) : 6 channels
Channel layout : L R C LFE Ls Rs
Sampling rate : 48.0 kHz
Frame rate : 31.250 FPS (1536 SPF)
Compression mode : Lossy
Stream size : 254 MiB (3%)
Title : Australian
Language : English
Service kind : Complete Main
Default : Yes
Forced : No

Text #1
ID : 3
Format : UTF-8
Codec ID : S_TEXT/UTF8
Codec ID/Info : UTF-8 Plain Text
Duration : 1 h 25 min
Bit rate : 26 b/s
Frame rate : 0.147 FPS
Count of elements : 752
Stream size : 16.8 KiB (0%)
Language : English
Default : Yes
Forced : No

Text #2
ID : 4
Format : UTF-8
Codec ID : S_TEXT/UTF8
Codec ID/Info : UTF-8 Plain Text
Duration : 1 h 27 min
Bit rate : 40 b/s
Frame rate : 0.228 FPS
Count of elements : 1189
Stream size : 25.8 KiB (0%)
Title : SDH
Language : English
Default : No
Forced : No

资源速度为零或资源敏感被和谐时,推荐使用qBittorrent等下载软件,有条件的推荐115更好的下载软件!

下载地址:

游客,如果您要查看本帖隐藏内容请回复





上一篇:天堂高速 / Paradise Highway (2022) 4K高清版本下载
下一篇:荣誉团队 / Honor Society (2022) 4K高清版本下载
回复

使用道具 举报

2

主题

1403

帖子

4059

积分

4K家园VIP

Rank: 9Rank: 9Rank: 9

积分
4059
发表于 2022-7-29 21:18:28 | 显示全部楼层
啊啊啊啊啊啊啊啊啊啊啊
回复 支持 反对

使用道具 举报

0

主题

3

帖子

15

积分

新手上路

Rank: 1

积分
15
发表于 2022-7-29 21:26:07 | 显示全部楼层
啊啊啊啊啊啊啊啊啊啊啊
回复 支持 反对

使用道具 举报

0

主题

1

帖子

10

积分

新手上路

Rank: 1

积分
10
发表于 2022-7-30 10:23:54 | 显示全部楼层
666666666666666
回复 支持 反对

使用道具 举报

34

主题

1554

帖子

4372

积分

4K家园VIP

Rank: 9Rank: 9Rank: 9

积分
4372
发表于 2022-7-30 11:59:08 来自手机 | 显示全部楼层
顶起顶起顶起
回复 支持 反对

使用道具 举报

5

主题

1684

帖子

4630

积分

4K家园VIP

Rank: 9Rank: 9Rank: 9

积分
4630
发表于 2022-8-2 18:27:00 | 显示全部楼层
楼主呀,,,您太有才了。。。
回复 支持 反对

使用道具 举报

1

主题

1332

帖子

3880

积分

4K家园VIP

Rank: 9Rank: 9Rank: 9

积分
3880
发表于 2022-8-10 15:14:05 | 显示全部楼层
啊啊啊啊啊啊啊啊啊啊啊
回复 支持 反对

使用道具 举报

40

主题

1504

帖子

4316

积分

4K家园VIP

Rank: 9Rank: 9Rank: 9

积分
4316
发表于 2022-8-12 10:25:14 | 显示全部楼层
支持一下楼主发表的内容
回复 支持 反对

使用道具 举报

您需要登录后才可以回帖 登录 | 立即注册

本版积分规则

精彩图文
Archiver|手机版|TAG|Sitemap|新帖|专题|联系我们:邮箱: 4kjia.com@gmail.com   

4k家园   ©2019