[4K电影] 野战排 [繁体中字] / Platoon (1986) 4K高清版本下载

[复制链接]

2163

主题

2306

帖子

1万

积分

超级版主

Rank: 8Rank: 8

积分
16861
 楼主| 发表于 2022-7-29 22:03:07 | 显示全部楼层 |阅读模式
QQ图片20220729213330_副本.png

◎译  名 野战排/杀戮战场(港)/前进高棉(台)
◎片  名 Platoon
◎年  代 1986
◎产  地 美国/英国
◎类  别 剧情/动作/战争
◎语  言 英语/越南语
◎上映日期 1986-12-19
◎IMDb评分 8.1/10 from 409750 users
◎IMDb链接 https://www.imdb.com/title/tt0091763/
◎豆瓣评分 8.2/10 from 41416 users
◎豆瓣链接 https://movie.douban.com/subject/1293396/
◎导  演 奥利佛·斯通 Oliver Stone
◎编  剧 奥利佛·斯通 Oliver Stone
◎主  演 威廉·达福 Willem Dafoe
       查理·辛 Charlie Sheen
       汤姆·贝伦杰 Tom Berenger
       凯斯·大卫 Keith David
       凯文·狄龙 Kevin Dillon
       马克·摩斯 Mark Moses
       约翰尼·德普 Johnny Depp
       福里斯特·惠特克 Forest Whitaker
       理查德·埃德森 Richard Edson
       奥利佛·斯通 Oliver Stone
       托尼·托德 Tony Todd


◎简  介


  泰勒(查理?辛 Charlie Sheen 饰)是越战期间的一名美国大学生,他前往越南前线去服兵役,被分到了一个步兵部队。部队里有两个人一直对他影响颇大——伊莱亚斯(威廉?达福 Willem Dafoe 饰)和巴恩斯(汤姆?贝伦杰 Tom Berenger 饰)。他们两人对战争的看法截然不同,前者不忍残杀无辜,而后者却杀人如麻,泰勒心里非常迷惑,到底谁对战争的看法才是正确。
  巴恩斯展开了一场残忍的屠杀,越南整条村落都流血成河。伊莱亚斯力劝好友不要如此残暴,却遭致二人关系的裂缝。巴恩斯更怀疑伊莱亚斯向上司打小报告,友谊变为妒恨。于是,在一次丛林战争中,他背着所有人,向伊莱亚斯扣下了扳机。
  泰勒却洞察了这一切,他心里终于有了答案。
Video
ID : 1
Format : HEVC
Format/Info : High Efficiency Video Coding
Format profile : Main 10@L5@High
HDR format : SMPTE ST 2086, HDR10 compatible
Codec ID : V_MPEGH/ISO/HEVC
Duration : 1 h 59 min
Bit rate : 24.4 Mb/s
Width : 3 832 pixels
Height : 2 068 pixels
Display aspect ratio : 1.85:1
Frame rate mode : Constant
Frame rate : 23.976 FPS
Color space : YUV
Chroma subsampling : 4:2:0 (Type 2)
Bit depth : 10 bits
Bits/(Pixel*Frame) : 0.128
Stream size : 20.4 GiB (87%)
Default : Yes
Forced : No
Color range : Limited
Color primaries : BT.2020
Transfer characteristics : PQ
Matrix coefficients : BT.2020 non-constant
Mastering display color primaries : BT.2020
Mastering display luminance : min: 0.0050 cd/m2, max: 1000 cd/m2
Maximum Content Light Level : 10000 cd/m2
Maximum Frame-Average Light Level : 5337 cd/m2

Audio #1
ID : 2
Format : DTS XLL
Format/Info : Digital Theater Systems
Commercial name : DTS-HD Master Audio
Codec ID : A_DTS
Duration : 1 h 59 min
Bit rate mode : Variable
Bit rate : 2 571 kb/s
Channel(s) : 6 channels
Channel layout : C L R Ls Rs LFE
Sampling rate : 48.0 kHz
Frame rate : 93.750 FPS (512 SPF)
Bit depth : 24 bits
Compression mode : Lossless
Stream size : 2.15 GiB (9%)
Title : DTS-HD MA 5.1
Language : English
Default : Yes
Forced : No

Audio #2
ID : 3
Format : AC-3
Format/Info : Audio Coding 3
Commercial name : Dolby Digital
Codec ID : A_AC3
Duration : 1 h 59 min
Bit rate mode : Constant
Bit rate : 384 kb/s
Channel(s) : 6 channels
Channel layout : L R C LFE Ls Rs
Sampling rate : 48.0 kHz
Frame rate : 31.250 FPS (1536 SPF)
Compression mode : Lossy
Stream size : 329 MiB (1%)
Language : English
Service kind : Complete Main
Default : No
Forced : No

Audio #3
ID : 4
Format : E-AC-3
Format/Info : Enhanced AC-3
Commercial name : Dolby Digital Plus
Codec ID : A_EAC3
Duration : 1 h 59 min
Bit rate mode : Constant
Bit rate : 640 kb/s
Channel(s) : 6 channels
Channel layout : L R C LFE Ls Rs
Sampling rate : 48.0 kHz
Frame rate : 31.250 FPS (1536 SPF)
Compression mode : Lossy
Stream size : 549 MiB (2%)
Title : DDP 5.1
Language : English
Service kind : Complete Main
Default : No
Forced : No

Text #1
ID : 5
Format : UTF-8
Codec ID : S_TEXT/UTF8
Codec ID/Info : UTF-8 Plain Text
Duration : 1 h 55 min
Bit rate : 54 b/s
Frame rate : 0.182 FPS
Count of elements : 1259
Stream size : 45.7 KiB (0%)
Title : English
Language : English
Default : No
Forced : No

Text #2
ID : 6
Format : UTF-8
Codec ID : S_TEXT/UTF8
Codec ID/Info : UTF-8 Plain Text
Duration : 1 h 54 min
Bit rate : 62 b/s
Frame rate : 0.237 FPS
Count of elements : 1620
Stream size : 52.0 KiB (0%)
Title : English CC
Language : English
Default : No
Forced : No

Text #3
ID : 7
Format : UTF-8
Codec ID : S_TEXT/UTF8
Codec ID/Info : UTF-8 Plain Text
Duration : 1 h 55 min
Bit rate : 33 b/s
Frame rate : 0.157 FPS
Count of elements : 1080
Stream size : 28.2 KiB (0%)
Title : 中文(繁体)
Language : Chinese
Default : No
Forced : No


Text #4
ID : 8
Format : UTF-8
Codec ID : S_TEXT/UTF8
Codec ID/Info : UTF-8 Plain Text
Duration : 1 h 55 min
Bit rate : 47 b/s
Frame rate : 0.139 FPS
Count of elements : 959
Stream size : 39.7 KiB (0%)
Title : Czech
Language : Czech
Default : No
Forced : No

Text #5
ID : 9
Format : UTF-8
Codec ID : S_TEXT/UTF8
Codec ID/Info : UTF-8 Plain Text
Duration : 1 h 55 min
Bit rate : 51 b/s
Frame rate : 0.182 FPS
Count of elements : 1256
Stream size : 43.4 KiB (0%)
Title : Danish
Language : Danish
Default : No
Forced : No

Text #6
ID : 10
Format : UTF-8
Codec ID : S_TEXT/UTF8
Codec ID/Info : UTF-8 Plain Text
Duration : 1 h 55 min
Bit rate : 55 b/s
Frame rate : 0.182 FPS
Count of elements : 1256
Stream size : 47.0 KiB (0%)
Title : German
Language : German
Default : No
Forced : No

Text #7
ID : 11
Format : UTF-8
Codec ID : S_TEXT/UTF8
Codec ID/Info : UTF-8 Plain Text
Duration : 1 h 55 min
Bit rate : 52 b/s
Frame rate : 0.182 FPS
Count of elements : 1256
Stream size : 44.2 KiB (0%)
Title : Spanish Latin American
Language : Spanish
Default : No
Forced : No

Text #8
ID : 12
Format : UTF-8
Codec ID : S_TEXT/UTF8
Codec ID/Info : UTF-8 Plain Text
Duration : 1 h 55 min
Bit rate : 51 b/s
Frame rate : 0.182 FPS
Count of elements : 1256
Stream size : 43.7 KiB (0%)
Title : Spanish European
Language : Spanish
Default : No
Forced : No

Text #9
ID : 13
Format : UTF-8
Codec ID : S_TEXT/UTF8
Codec ID/Info : UTF-8 Plain Text
Duration : 1 h 55 min
Bit rate : 47 b/s
Frame rate : 0.182 FPS
Count of elements : 1257
Stream size : 39.7 KiB (0%)
Title : Finnish
Language : Finnish
Default : No
Forced : No

Text #10
ID : 14
Format : UTF-8
Codec ID : S_TEXT/UTF8
Codec ID/Info : UTF-8 Plain Text
Duration : 1 h 58 min
Bit rate : 51 b/s
Frame rate : 0.176 FPS
Count of elements : 1257
Stream size : 44.9 KiB (0%)
Title : French European
Language : French
Default : No
Forced : No

Text #11
ID : 15
Format : UTF-8
Codec ID : S_TEXT/UTF8
Codec ID/Info : UTF-8 Plain Text
Duration : 1 h 55 min
Bit rate : 46 b/s
Frame rate : 0.139 FPS
Count of elements : 960
Stream size : 39.1 KiB (0%)
Title : Hungarian
Language : Hungarian
Default : No
Forced : No

Text #12
ID : 16
Format : UTF-8
Codec ID : S_TEXT/UTF8
Codec ID/Info : UTF-8 Plain Text
Duration : 1 h 55 min
Bit rate : 50 b/s
Frame rate : 0.182 FPS
Count of elements : 1256
Stream size : 42.9 KiB (0%)
Title : Italian
Language : Italian
Default : No
Forced : No

Text #13
ID : 17
Format : UTF-8
Codec ID : S_TEXT/UTF8
Codec ID/Info : UTF-8 Plain Text
Duration : 1 h 55 min
Bit rate : 32 b/s
Frame rate : 0.131 FPS
Count of elements : 906
Stream size : 27.3 KiB (0%)
Title : Japanese
Language : Japanese
Default : No
Forced : No

Text #14
ID : 18
Format : UTF-8
Codec ID : S_TEXT/UTF8
Codec ID/Info : UTF-8 Plain Text
Duration : 1 h 55 min
Bit rate : 46 b/s
Frame rate : 0.182 FPS
Count of elements : 1257
Stream size : 39.3 KiB (0%)
Title : Dutch
Language : Dutch
Default : No
Forced : No

Text #15
ID : 19
Format : UTF-8
Codec ID : S_TEXT/UTF8
Codec ID/Info : UTF-8 Plain Text
Duration : 1 h 55 min
Bit rate : 50 b/s
Frame rate : 0.182 FPS
Count of elements : 1257
Stream size : 42.4 KiB (0%)
Title : Norwegian
Language : Norwegian
Default : No
Forced : No

Text #16
ID : 20
Format : UTF-8
Codec ID : S_TEXT/UTF8
Codec ID/Info : UTF-8 Plain Text
Duration : 1 h 55 min
Bit rate : 47 b/s
Frame rate : 0.139 FPS
Count of elements : 960
Stream size : 39.8 KiB (0%)
Title : Polish
Language : Polish
Default : No
Forced : No

Text #17
ID : 21
Format : UTF-8
Codec ID : S_TEXT/UTF8
Codec ID/Info : UTF-8 Plain Text
Duration : 1 h 55 min
Bit rate : 47 b/s
Frame rate : 0.158 FPS
Count of elements : 1088
Stream size : 40.0 KiB (0%)
Title : Portuguese Brazilian
Language : Portuguese
Default : No
Forced : No

Text #18
ID : 22
Format : UTF-8
Codec ID : S_TEXT/UTF8
Codec ID/Info : UTF-8 Plain Text
Duration : 1 h 55 min
Bit rate : 48 b/s
Frame rate : 0.139 FPS
Count of elements : 959
Stream size : 41.2 KiB (0%)
Title : Portuguese European
Language : Portuguese
Default : No
Forced : No

Text #19
ID : 23
Format : UTF-8
Codec ID : S_TEXT/UTF8
Codec ID/Info : UTF-8 Plain Text
Duration : 1 h 55 min
Bit rate : 46 b/s
Frame rate : 0.182 FPS
Count of elements : 1256
Stream size : 39.2 KiB (0%)
Title : Swedish
Language : Swedish
Default : No
Forced : No

Text #20
ID : 24
Format : UTF-8
Codec ID : S_TEXT/UTF8
Codec ID/Info : UTF-8 Plain Text
Duration : 1 h 55 min
Bit rate : 99 b/s
Frame rate : 0.157 FPS
Count of elements : 1080
Stream size : 83.5 KiB (0%)
Title : Thai
Language : Thai
Default : No
Forced : No

Text #21
ID : 25
Format : UTF-8
Codec ID : S_TEXT/UTF8
Codec ID/Info : UTF-8 Plain Text
Duration : 1 h 55 min
Bit rate : 47 b/s
Frame rate : 0.139 FPS
Count of elements : 959
Stream size : 40.0 KiB (0%)
Title : Turkish
Language : Turkish
Default : No
Forced : No

Menu
00:00:00.000 : en:Chapter 01
00:15:02.000 : en:Chapter 02
00:30:06.000 : en:Chapter 03
00:45:16.000 : en:Chapter 04
01:01:57.000 : en:Chapter 05
01:17:23.000 : en:Chapter 06
01:35:15.500 : en:Chapter 07
01:45:56.000 : en:Chapter 08

资源速度为零或资源敏感被和谐时,推荐使用qBittorrent等下载软件,有条件的推荐115更好的下载软件!

下载地址:

游客,如果您要查看本帖隐藏内容请回复
游客,如果您要查看本帖隐藏内容请回复

游客,如果您要查看本帖隐藏内容请回复

游客,如果您要查看本帖隐藏内容请回复



以下为以往链接
游客,如果您要查看本帖隐藏内容请回复




上一篇:荣誉团队 / Honor Society (2022) 4K高清版本下载
下一篇:FIR / FIR (2022) 4K高清版本下载
回复

使用道具 举报

2

主题

1423

帖子

4121

积分

4K家园VIP

Rank: 9Rank: 9Rank: 9

积分
4121
发表于 2022-7-29 22:03:13 | 显示全部楼层
我也来顶一下..
回复 支持 反对

使用道具 举报

0

主题

10

帖子

27

积分

新手上路

Rank: 1

积分
27
发表于 2022-7-30 08:20:57 | 显示全部楼层
可以
回复

使用道具 举报

0

主题

10

帖子

27

积分

新手上路

Rank: 1

积分
27
发表于 2022-7-30 08:21:59 | 显示全部楼层
666666666666666666
回复 支持 反对

使用道具 举报

0

主题

433

帖子

2643

积分

注册会员

Rank: 2

积分
2643
发表于 2022-7-30 12:21:14 | 显示全部楼层
谢谢楼主分享
回复 支持 反对

使用道具 举报

0

主题

2

帖子

9

积分

新手上路

Rank: 1

积分
9
发表于 2022-7-30 21:36:00 | 显示全部楼层
不错的资源
回复 支持 反对

使用道具 举报

2

主题

1428

帖子

4104

积分

4K家园VIP

Rank: 9Rank: 9Rank: 9

积分
4104
发表于 2022-8-8 13:54:09 来自手机 | 显示全部楼层
回复 支持 反对

使用道具 举报

1

主题

1325

帖子

3803

积分

4K家园VIP

Rank: 9Rank: 9Rank: 9

积分
3803
发表于 2022-8-12 20:48:02 | 显示全部楼层
出4K版啦,下个看看
回复 支持 反对

使用道具 举报

您需要登录后才可以回帖 登录 | 立即注册

本版积分规则

精彩图文
Archiver|手机版|TAG|Sitemap|新帖|专题|联系我们:邮箱: 4kjia.com@gmail.com   

4k家园   ©2019