[4K电影] 排爆手 [国语中字] / The.EOD.Squad 4K@60fps (2022) 4K高清版本下载

[复制链接]

2163

主题

2306

帖子

1万

积分

超级版主

Rank: 8Rank: 8

积分
16861
 楼主| 发表于 2022-8-1 13:53:57 | 显示全部楼层 |阅读模式
本帖最后由 最爱4K哟 于 2022-8-1 14:04 编辑

QQ图片20220801134451_副本.png

◎标  题 排爆手
◎译  名 排爆专家 / The EOD Squad
◎年  代 2022
◎产  地 中国大陆
◎类  别 动作 / 战争
◎语  言 汉语普通话
◎上映日期 2022-07-30(中国大陆网络)
◎IMDb链接 https://www.imdb.com/title/tt14113678/
◎豆瓣链接 https://movie.douban.com/subject/35369572/
◎导  演 阚家伟 Ka-Wai Kam
◎演  员 刘烨 Ye Liu
       余男 Nan Yu
       于荣光 Ringo Yu
       王韬 Tao Wang
       洪浚嘉 Junjia Hong
       艾东 Dong Ai
       林迪安 Dion Lam
       杜志国 Zhiguo Du
       林迪安 Dion Lam
       龚宇 Yu Gong
       林迪安 Dion Lam

◎简  介

  讲述了武警部队中一支特殊力量——排爆手,在与边境毒贩生死较量的同时,身处“无声的战场”与时间赛跑的英雄事迹......

General
Complete name                  : G:\4K下载\【www.4kjia.co】排爆手The.EOD.Squad.2022.2160p.WEB-DL.H265.AAC-ALANG
Format                         : Matroska
Format version                 : Version 4
File size                      : 3.98 GiB
Duration                       : 1 h 24 min
Overall bit rate               : 6 759 kb/s
Encoded date                   : UTC 2022-07-31 03:31:10
Writing application            : mkvmerge v58.0.0 ('Supper's Ready') 64-bit
Writing library                : libebml v1.4.2 + libmatroska v1.6.4

Video
ID                             : 1
Format                         : HEVC
Format/Info                    : High Efficiency Video Coding
Format profile                 : Main 10@L5.1@Main
Codec ID                       : V_MPEGH/ISO/HEVC
Duration                       : 1 h 24 min
Bit rate                       : 6 565 kb/s
Width                          : 3 840 pixels
Height                         : 1 636 pixels
Display aspect ratio           : 2.35:1
Frame rate mode                : Constant
Frame rate                     : 60.000 FPS
Color space                    : YUV
Chroma subsampling             : 4:2:0
Bit depth                      : 10 bits
Bits/(Pixel*Frame)             : 0.017
Stream size                    : 3.87 GiB (97%)
Language                       : Chinese
Default                        : Yes
Forced                         : No
Color range                    : Limited
Color primaries                : BT.709
Transfer characteristics       : BT.709
Matrix coefficients            : BT.709

Audio
ID                             : 2
Format                         : AAC LC
Format/Info                    : Advanced Audio Codec Low Complexity
Codec ID                       : A_AAC-2
Duration                       : 1 h 24 min
Bit rate                       : 192 kb/s
Channel(s)                     : 2 channels
Channel layout                 : L R
Sampling rate                  : 44.1 kHz
Frame rate                     : 43.066 FPS (1024 SPF)
Compression mode               : Lossy
Stream size                    : 114 MiB (3%)
Language                       : Chinese
Default                        : Yes
Forced                         : No

迅雷下载资源速度为零或资源敏感被和谐时,推荐使用qBittorrent等下载软件,有条件的推荐115更好的下载软件!

下载地址:

游客,如果您要查看本帖隐藏内容请回复


下载需知:本资源为4K@60fps资源,播放时需要播放设备支持,才有良好体验,谢谢!




上一篇:FIR / FIR (2022) 4K高清版本下载
下一篇:我们现在这样 / As They Made Us (2022) 4K高清版本下载
回复

使用道具 举报

2

主题

1406

帖子

4240

积分

4K家园VIP

Rank: 9Rank: 9Rank: 9

积分
4240
发表于 2022-8-1 13:54:05 | 显示全部楼层
前排,哇咔咔
回复 支持 反对

使用道具 举报

0

主题

1

帖子

73

积分

4K家园VIP

Rank: 9Rank: 9Rank: 9

积分
73
发表于 2022-8-1 19:54:43 | 显示全部楼层
没速度咋整啊。。
回复 支持 反对

使用道具 举报

48

主题

1537

帖子

4483

积分

4K家园VIP

Rank: 9Rank: 9Rank: 9

积分
4483
发表于 2022-8-1 23:34:05 | 显示全部楼层
支持一下楼主,顶起来
回复 支持 反对

使用道具 举报

0

主题

14

帖子

59

积分

新手上路

Rank: 1

积分
59
发表于 2022-8-2 11:07:34 | 显示全部楼层
看一看,站一战
回复 支持 反对

使用道具 举报

0

主题

1

帖子

10

积分

新手上路

Rank: 1

积分
10
发表于 2022-8-2 11:30:36 | 显示全部楼层
支持一下
回复

使用道具 举报

0

主题

433

帖子

2643

积分

注册会员

Rank: 2

积分
2643
发表于 2022-8-2 12:55:24 | 显示全部楼层
支持一下楼主
回复 支持 反对

使用道具 举报

0

主题

58

帖子

1082

积分

注册会员

Rank: 2

积分
1082
发表于 2022-8-2 18:59:41 | 显示全部楼层
谢谢谢谢谢谢谢
回复 支持 反对

使用道具 举报

2

主题

1315

帖子

3963

积分

4K家园VIP

Rank: 9Rank: 9Rank: 9

积分
3963
发表于 2022-8-3 02:42:00 | 显示全部楼层
为毛老子总也抢不到沙发?!!
回复 支持 反对

使用道具 举报

0

主题

8337

帖子

1万

积分

4K家园VIP

Rank: 9Rank: 9Rank: 9

积分
19391
发表于 2022-8-3 10:29:57 | 显示全部楼层
太好啦&萬分感謝版主的無私發佈分享%
回复 支持 反对

使用道具 举报

您需要登录后才可以回帖 登录 | 立即注册

本版积分规则

精彩图文
Archiver|手机版|TAG|Sitemap|新帖|专题|联系我们:邮箱: 4kjia.com@gmail.com   

4k家园   ©2019