[4K电影] 我们现在这样 / As They Made Us (2022) 4K高清版本下载

[复制链接]

2163

主题

2306

帖子

1万

积分

超级版主

Rank: 8Rank: 8

积分
16861
 楼主| 发表于 2022-8-2 10:33:04 | 显示全部楼层 |阅读模式
QQ图片20220802102053_副本.png

◎标  题 我们现在这样
◎译  名 As Sick As They Made Us
◎片  名 As They Made Us
◎年  代 2022
◎产  地 美国
◎类  别 喜剧
◎语  言 英语
◎上映日期 2022-04-08(美国)
◎IMDb评分 5.7/10 from 670 users
◎IMDb链接 https://www.imdb.com/title/tt10949028/
◎豆瓣链接 https://movie.douban.com/subject/34820707/
◎片  长 90分钟
◎导  演 马伊姆·拜力克 Mayim Bialik
◎编  剧 马伊姆·拜力克 Mayim Bialik
◎演  员 达斯汀·霍夫曼 Dustin Hoffman
       坎迪斯·伯根 Candice Bergen
       西蒙·赫尔伯格 Simon Helberg
       奥莉薇·瑟尔比 Olivia Thirlby
       迪安娜·阿格隆 Dianna Agron


◎简  介


  阿比盖尔的一段新恋情正好发生在她父母混乱的滑稽动作中。在经历了一辈子功能失调的欢闹之后,这家人在一位疏远的兄弟的陪伴下,必须拥抱最后一次再见。

Video
ID : 1
Format : HEVC
Format/Info : High Efficiency Video Coding
Format profile : Main@L5@Main
Codec ID : V_MPEGH/ISO/HEVC
Duration : 1 h 39 min
Bit rate : 14.8 Mb/s
Width : 3 840 pixels
Height : 2 160 pixels
Display aspect ratio : 16:9
Frame rate mode : Constant
Frame rate : 23.976 (24000/1001) FPS
Color space : YUV
Chroma subsampling : 4:2:0
Bit depth : 8 bits
Bits/(Pixel*Frame) : 0.074
Stream size : 10.3 GiB (97%)
Writing library : x265 3.5hy:[Linux][GCC 7.5.0][64 bit] 8bit
Encoding settings : cpuid=1111039 / frame-threads=2 / wpp / no-pmode / no-pme / no-psnr / no-ssim / log-level=2 / input-csp=1 / input-res=3840x2160 / interlace=0 / total-frames=0 / level-idc=0 / high-tier=1 / uhd-bd=0 / ref=4 / no-allow-non-conformance / repeat-headers / annexb / aud / hrd / info / hash=0 / no-temporal-layers / no-open-gop / min-keyint=48 / keyint=48 / gop-lookahead=0 / bframes=4 / b-adapt=2 / b-pyramid / bframe-bias=0 / rc-lookahead=48 / lookahead-slices=4 / scenecut=0 / hist-scenecut=0 / radl=0 / no-splice / no-intra-refresh / ctu=64 / min-cu-size=8 / rect / no-amp / max-tu-size=32 / tu-inter-depth=1 / tu-intra-depth=1 / limit-tu=0 / rdoq-level=2 / dynamic-rd=0.00 / no-ssim-rd / signhide / no-tskip / nr-intra=100 / nr-inter=200 / no-constrained-intra / strong-intra-smoothing / max-merge=3 / limit-refs=3 / limit-modes / me=3 / subme=3 / merange=57 / temporal-mvp / no-frame-dup / no-hme / weightp / no-weightb / no-analyze-src-pics / deblock=0:0 / no-sao / no-sao-non-deblock / rd=4 / selective-sao=0 / no-early-skip / no-rskip / no-fast-intra / no-tskip-fast / no-cu-lossless / no-b-intra / no-splitrd-skip / rdpenalty=0 / psy-rd=0.00 / psy-rdoq=10.00 / no-rd-refine / no-lossless / cbqpoffs=0 / crqpoffs=0 / rc=abr / bitrate=15000 / qcomp=0.60 / qpstep=1 / stats-write=0 / stats-read=2 / cplxblur=20.0 / qblur=0.5 / vbv-maxrate=18000 / vbv-bufsize=12000 / vbv-init=0.6 / min-vbv-fullness=50.0 / max-vbv-fullness=80.0 / vbv-end=0.6 / vbv-end-fr-adj=0.0 / ipratio=1.10 / pbratio=1.00 / aq-mode=0 / aq-strength=0.00 / no-cutree / zone-count=0 / no-strict-cbr / qg-size=32 / rc-grain / qpmax=69 / qpmin=0 / const-vbv / sar=0 / overscan=0 / videoformat=5 / range=0 / colorprim=1 / transfer=1 / colormatrix=1 / chromaloc=0 / display-window=0 / cll=0,0 / min-luma=0 / max-luma=255 / log2-max-poc-lsb=8 / vui-timing-info / vui-hrd-info / no-concatenation / slices=1 / no-opt-qp-pps / no-opt-ref-list-length-pps / no-multi-pass-opt-rps / scenecut-bias=0.05 / hist-threshold=0.03 / no-opt-cu-delta-qp / no-aq-motion / no-hdr10 / no-hdr10-opt / no-dhdr10-opt / no-idr-recovery-sei / analysis-reuse-level=0 / analysis-save-reuse-level=0 / analysis-load-reuse-level=0 / scale-factor=0 / refine-intra=0 / refine-inter=0 / refine-mv=1 / refine-ctu-distortion=0 / no-limit-sao / ctu-info=0 / no-lowpass-dct / refine-analysis-type=0 / copy-pic=1 / max-ausize-factor=1.0 / no-dynamic-refine / no-single-sei / no-hevc-aq / no-svt / no-field / qp-adaptation-range=1.00 / scenecut-aware-qp=0conformance-window-offsets / right=0 / bottom=0 / decoder-max-rate=0 / no-vbv-live-multi-pass
Language : English
Default : Yes
Forced : No
Color range : Limited
Color primaries : BT.709
Transfer characteristics : BT.709
Matrix coefficients : BT.709

Audio
ID : 2
Format : AC-3
Format/Info : Audio Coding 3
Commercial name : Dolby Digital
Codec ID : A_AC3
Duration : 1 h 39 min
Bit rate mode : Constant
Bit rate : 384 kb/s
Channel(s) : 6 channels
Channel layout : L R C LFE Ls Rs
Sampling rate : 48.0 kHz
Frame rate : 31.250 FPS (1536 SPF)
Compression mode : Lossy
Stream size : 273 MiB (3%)
Title : English
Language : English
Service kind : Complete Main
Default : Yes
Forced : No

Text
ID : 3
Format : UTF-8
Codec ID : S_TEXT/UTF8
Codec ID/Info : UTF-8 Plain Text
Duration : 1 h 36 min
Bit rate : 73 b/s
Frame rate : 0.344 FPS
Count of elements : 1991
Stream size : 51.6 KiB (0%)
Title : English (SDH)
Language : English
Default : No
Forced : No


资源速度为零或资源敏感被和谐时,推荐使用qBittorrent等下载软件,有条件的推荐115更好的下载软件!

下载地址:


游客,如果您要查看本帖隐藏内容请回复





上一篇:排爆手 [国语中字] / The.EOD.Squad 4K@60fps (2022) 4K高清版本下载
下一篇:哈里斯夫人去巴黎 / Minions.The.Rise.of.Gru (2022) 4K高清版本下载
回复

使用道具 举报

1

主题

1286

帖子

3876

积分

4K家园VIP

Rank: 9Rank: 9Rank: 9

积分
3876
发表于 2022-8-2 10:33:08 | 显示全部楼层
不错 支持下
回复 支持 反对

使用道具 举报

45

主题

1485

帖子

4303

积分

4K家园VIP

Rank: 9Rank: 9Rank: 9

积分
4303
发表于 2022-8-2 10:49:40 来自手机 | 显示全部楼层
学习下
回复 支持 反对

使用道具 举报

2

主题

1315

帖子

3963

积分

4K家园VIP

Rank: 9Rank: 9Rank: 9

积分
3963
发表于 2022-8-2 10:55:35 | 显示全部楼层
顶起顶起顶起
回复 支持 反对

使用道具 举报

0

主题

1193

帖子

3593

积分

4K家园VIP

Rank: 9Rank: 9Rank: 9

积分
3593
发表于 2022-8-2 11:21:16 来自手机 | 显示全部楼层
这个资源我记得是一套的,楼主还有没有
回复 支持 反对

使用道具 举报

5

主题

1703

帖子

4715

积分

4K家园VIP

Rank: 9Rank: 9Rank: 9

积分
4715
发表于 2022-8-2 11:41:05 | 显示全部楼层
确实不错,顶先
回复 支持 反对

使用道具 举报

0

主题

6

帖子

23

积分

新手上路

Rank: 1

积分
23
发表于 2022-8-2 20:39:46 | 显示全部楼层
ddddddddddddddddddddddddddddddddd
回复 支持 反对

使用道具 举报

0

主题

8337

帖子

1万

积分

4K家园VIP

Rank: 9Rank: 9Rank: 9

积分
19391
发表于 2022-8-3 10:29:36 | 显示全部楼层
太好啦&萬分感謝版主的無私發佈分享%
回复 支持 反对

使用道具 举报

您需要登录后才可以回帖 登录 | 立即注册

本版积分规则

精彩图文
Archiver|手机版|TAG|Sitemap|新帖|专题|联系我们:邮箱: 4kjia.com@gmail.com   

4k家园   ©2019