[国家地理] [4K国家地理] 意大利国家公园-大天堂 (2021) [2160P/MKV/371MB]

[复制链接]

2856

主题

3223

帖子

2万

积分

超级版主

Rank: 8Rank: 8

积分
27263
 楼主| 发表于 2022-8-8 21:02:58 | 显示全部楼层 |阅读模式

大天堂(2021)WEBRip 2160p.mkv_20220803_102632.799.jpg 大天堂(2021)WEBRip 2160p.mkv_20220803_102721.879.jpg 大天堂(2021)WEBRip 2160p.mkv_20220803_102739.895.jpg 大天堂(2021)WEBRip 2160p.mkv_20220803_102754.063.jpg 大天堂(2021)WEBRip 2160p.mkv_20220803_102759.287.jpg 大天堂(2021)WEBRip 2160p.mkv_20220803_102810.625.jpg

影片信息
片名: Gran Paradiso
国家:意大利
工作室:钉住你的脚步
持续时间: 00 : 03 : 04
上映时间: 2021
类型: 具体

影片简介:

      意大利国家公园位于格雷安阿尔卑斯山,位于瓦莱达奥斯塔和皮埃蒙特地区之间。该公园以大天堂山命名,这是唯一一座完全在意大利境内的山,海拔超过 4000 米。

Video
ID                             : 1
Format                         : VP9
Codec ID                       : V_VP9
Duration                       : 3 min 4 s
Bit rate                       : 16.8 Mb/s
Width                          : 3 840 pixels
Height                         : 2 160 pixels
Display aspect ratio           : 16:9
Frame rate mode                : Variable
Frame rate                     : 29.970 (29970/1000) FPS
Bits/(Pixel*Frame)             : 0.068
Stream size                    : 369 MiB (99%)
Default                        : Yes
Forced                         : No

Audio
ID                             : 2
Format                         : Opus
Codec ID                       : A_OPUS
Duration                       : 3 min 4 s
Bit rate                       : 129 kb/s
Channel(s)                     : 2 channels
Channel layout                 : L R
Sampling rate                  : 48.0 kHz
Frame rate                     : 50.000 FPS (960 SPF)
Bit depth                      : 16 bits
Compression mode               : Lossy
Stream size                    : 2.83 MiB (1%)
Default                        : Yes
Forced                         : No
下载地址:

游客,如果您要查看本帖隐藏内容请回复





上一篇:[大尺度欧美 4K视频] 2022 罗莎莉亚 4K[2160P/MOV/4.82GB]
下一篇:[4K国家地理] 来自灰烬 (2020) [2160P/MKV/610MB]
回复

使用道具 举报

50

主题

1519

帖子

4361

积分

4K家园VIP

Rank: 9Rank: 9Rank: 9

积分
4361
发表于 2022-8-8 21:03:05 | 显示全部楼层
4K应该不错,我也下个看看
回复 支持 反对

使用道具 举报

53

主题

1549

帖子

4487

积分

4K家园VIP

Rank: 9Rank: 9Rank: 9

积分
4487
发表于 2022-8-8 21:08:00 | 显示全部楼层
前排支持下
回复 支持 反对

使用道具 举报

0

主题

8668

帖子

2万

积分

4K家园VIP

Rank: 9Rank: 9Rank: 9

积分
20210
发表于 2022-8-8 21:15:35 | 显示全部楼层
意大利國家公園★大天堂4k
回复 支持 反对

使用道具 举报

46

主题

1459

帖子

4205

积分

4K家园VIP

Rank: 9Rank: 9Rank: 9

积分
4205
发表于 2022-8-8 21:56:35 来自手机 | 显示全部楼层
我也顶起出售广告位
回复 支持 反对

使用道具 举报

5

主题

1504

帖子

4356

积分

4K家园VIP

Rank: 9Rank: 9Rank: 9

积分
4356
发表于 2022-8-8 22:09:11 来自手机 | 显示全部楼层
众里寻他千百度,蓦然回首在这里!
回复 支持 反对

使用道具 举报

42

主题

1530

帖子

4402

积分

4K家园VIP

Rank: 9Rank: 9Rank: 9

积分
4402
发表于 2022-8-8 22:30:25 来自手机 | 显示全部楼层
OMG!介是啥东东!!!
回复 支持 反对

使用道具 举报

0

主题

4

帖子

25

积分

4K家园VIP

Rank: 9Rank: 9Rank: 9

积分
25
发表于 2022-8-9 21:01:14 | 显示全部楼层
感谢
回复

使用道具 举报

0

主题

3

帖子

12

积分

新手上路

Rank: 1

积分
12
发表于 2022-8-10 15:20:35 | 显示全部楼层
66666666
回复

使用道具 举报

0

主题

4

帖子

15

积分

新手上路

Rank: 1

积分
15
发表于 2022-8-10 16:55:31 | 显示全部楼层
不错  谢谢
回复 支持 反对

使用道具 举报

您需要登录后才可以回帖 登录 | 立即注册

本版积分规则

精彩图文
Archiver|手机版|TAG|Sitemap|新帖|专题|联系我们:邮箱: 4kjia.com@gmail.com   

4k家园   ©2019