[国家地理] [4K国家地理] 车里雅宾斯克 (2020) [2160P/MKV/342MB]

[复制链接]

2857

主题

3224

帖子

2万

积分

超级版主

Rank: 8Rank: 8

积分
27277
 楼主| 发表于 2022-8-27 19:02:43 | 显示全部楼层 |阅读模式
本帖最后由 叽里呱啦 于 2022-8-3 10:53 编辑

车里雅宾斯克 (2020) WEBRip 2160p.mkv_20220803_104232.785.jpg 车里雅宾斯克 (2020) WEBRip 2160p.mkv_20220803_104240.160.jpg 车里雅宾斯克 (2020) WEBRip 2160p.mkv_20220803_104251.712.jpg 车里雅宾斯克 (2020) WEBRip 2160p.mkv_20220803_104302.754.jpg 车里雅宾斯克 (2020) WEBRip 2160p.mkv_20220803_104309.175.jpg 车里雅宾斯克 (2020) WEBRip 2160p.mkv_20220803_104320.312.jpg

影片信息
片名:车里雅宾斯克
上映年份: 2020
国家:俄罗斯
时长: 00 : 03 : 26
类型: 物种
导演:叶夫根尼·科任

影片简介:

      车里雅宾斯克,我居住的城市,以其独特的方式可怕而美丽。一座被地方当局深埋多年的潜力城市!

Video
ID                             : 1
Format                         : AVC
Format/Info                    : Advanced Video Codec
Format profile                 : High@L5.2
Format settings                : CABAC / 5 Ref Frames
Format settings, CABAC         : Yes
Format settings, Reference fra : 5 frames
Codec ID                       : V_MPEG4/ISO/AVC
Duration                       : 3 min 25 s
Bit rate                       : 13.7 Mb/s
Width                          : 3 840 pixels
Height                         : 1 600 pixels
Display aspect ratio           : 2.40:1
Frame rate mode                : Constant
Frame rate                     : 30.000 FPS
Color space                    : YUV
Chroma subsampling             : 4:2:0
Bit depth                      : 8 bits
Scan type                      : Progressive
Bits/(Pixel*Frame)             : 0.074
Stream size                    : 336 MiB (98%)
Writing library                : x264 core 164 r10 ae03D92
Encoding settings              : cabac=1 / ref=5 / deblock=1:0:0 / analyse=0x3:0x113 / me=hex / subme=8 / psy=1 / psy_rd=1.00:0.00 / mixed_ref=1 / me_range=16 / chroma_me=1 / trellis=2 / 8x8dct=1 / cqm=0 / deadzone=21,11 / fast_pskip=1 / chroma_qp_offset=-2 / threads=48 / lookahead_threads=8 / sliced_threads=0 / nr=0 / decimate=1 / interlaced=0 / bluray_compat=0 / stitchable=1 / constrained_intra=0 / bframes=3 / b_pyramid=2 / b_adapt=2 / b_bias=0 / direct=3 / weightb=1 / open_gop=0 / weightp=2 / keyint=infinite / keyint_min=30 / scenecut=40 / intra_refresh=0 / rc_lookahead=50 / rc=crf / mbtree=1 / crf=20.0 / qcomp=0.60 / qpmin=5 / qpmax=69 / qpstep=4 / vbv_maxrate=24200 / vbv_bufsize=66000 / crf_max=0.0 / nal_hrd=none / filler=0 / ip_ratio=1.40 / aq=1:1.00
Default                        : Yes
Forced                         : No
Color range                    : Limited
Color primaries                : BT.709
Transfer characteristics       : BT.709
Matrix coefficients            : BT.709

Audio
ID                             : 2
Format                         : AAC LC
Format/Info                    : Advanced Audio Codec Low Complexity
Codec ID                       : A_AAC-2
Duration                       : 3 min 25 s
Bit rate                       : 253 kb/s
Channel(s)                     : 2 channels
Channel layout                 : L R
Sampling rate                  : 48.0 kHz
Frame rate                     : 46.875 FPS (1024 SPF)
Compression mode               : Lossy
Delay relative to video        : -66 ms
Stream size                    : 6.22 MiB (2%)
Default                        : Yes
Forced                         : No

下载地址:

游客,如果您要查看本帖隐藏内容请回复






上一篇:[4K国家地理] 来自灰烬 (2020) [2160P/MKV/610MB]
下一篇:[4K国家地理] 波士顿的秋冬美景 (2020) [2160P/MKV/236MB]
回复

使用道具 举报

22

主题

1235

帖子

3695

积分

4K家园VIP

Rank: 9Rank: 9Rank: 9

积分
3695
发表于 2022-8-27 19:02:47 | 显示全部楼层
还有没有别的资源,多分享些
回复 支持 反对

使用道具 举报

39

主题

1539

帖子

4411

积分

4K家园VIP

Rank: 9Rank: 9Rank: 9

积分
4411
发表于 2022-8-27 19:02:48 | 显示全部楼层
顶起顶起顶起
回复 支持 反对

使用道具 举报

0

主题

8668

帖子

2万

积分

4K家园VIP

Rank: 9Rank: 9Rank: 9

积分
20210
发表于 2022-8-27 19:17:51 | 显示全部楼层
太好啦&萬分感謝版主的無私發佈分享%
回复 支持 反对

使用道具 举报

0

主题

22

帖子

106

积分

新手上路

Rank: 1

积分
106
发表于 2022-8-27 21:45:00 | 显示全部楼层
试试看
回复

使用道具 举报

0

主题

24

帖子

58

积分

新手上路

Rank: 1

积分
58
发表于 2022-8-28 13:31:18 | 显示全部楼层

顶起顶起顶起
回复 支持 反对

使用道具 举报

0

主题

7

帖子

7614

积分

金牌会员

Rank: 6Rank: 6

积分
7614
发表于 2022-8-30 18:11:33 | 显示全部楼层
这地名,有点眼熟
回复 支持 反对

使用道具 举报

0

主题

4

帖子

15

积分

新手上路

Rank: 1

积分
15
发表于 2022-8-31 06:11:35 来自手机 | 显示全部楼层
顶起
回复

使用道具 举报

0

主题

10

帖子

28

积分

新手上路

Rank: 1

积分
28
发表于 2022-9-8 00:06:09 来自手机 | 显示全部楼层
感谢分享
回复

使用道具 举报

3

主题

1400

帖子

4224

积分

4K家园VIP

Rank: 9Rank: 9Rank: 9

积分
4224
发表于 2022-9-12 00:25:45 来自手机 | 显示全部楼层
众里寻他千百度,蓦然回首在这里!
回复 支持 反对

使用道具 举报

您需要登录后才可以回帖 登录 | 立即注册

本版积分规则

精彩图文
Archiver|手机版|TAG|Sitemap|新帖|专题|联系我们:邮箱: 4kjia.com@gmail.com   

4k家园   ©2019