[国家地理] [4K国家地理] 波士顿的秋冬美景 (2020) [2160P/MKV/236MB]

[复制链接]

2856

主题

3223

帖子

2万

积分

超级版主

Rank: 8Rank: 8

积分
27263
 楼主| 发表于 2022-8-25 20:55:55 | 显示全部楼层 |阅读模式

波士顿自上而下(236MB (2020) WEBRip 2160p.mkv_20220803_104616.552.jpg 波士顿自上而下(236MB (2020) WEBRip 2160p.mkv_20220803_104624.776.jpg 波士顿自上而下(236MB (2020) WEBRip 2160p.mkv_20220803_104631.440.jpg 波士顿自上而下(236MB (2020) WEBRip 2160p.mkv_20220803_104645.535.jpg 波士顿自上而下(236MB (2020) WEBRip 2160p.mkv_20220803_104654.728.jpg 波士顿自上而下(236MB (2020) WEBRip 2160p.mkv_20220803_104708.327.jpg 波士顿自上而下(236MB (2020) WEBRip 2160p.mkv_20220803_104716.463.jpg 波士顿自上而下(236MB (2020) WEBRip 2160p.mkv_20220803_104724.480.jpg

影片信息
片名:波士顿的秋冬美景
上映年份: 2020
国家:美国
持续时间: 00 : 02 : 14
类型: 物种
导演:约书亚·特纳

影片简介:

         波士顿是马萨诸塞州的首府和最大城市。这段视频是在秋天和初冬拍摄的。

Video
ID                             : 1
Format                         : VP9
Codec ID                       : V_VP9
Duration                       : 2 min 14 s
Bit rate                       : 14.6 Mb/s
Width                          : 3 840 pixels
Height                         : 2 160 pixels
Display aspect ratio           : 16:9
Frame rate mode                : Constant
Frame rate                     : 24.000 FPS
Color space                    : YUV
Bits/(Pixel*Frame)             : 0.073
Stream size                    : 234 MiB (99%)
Default                        : Yes
Forced                         : No
Color range                    : Limited
Color primaries                : BT.709
Transfer characteristics       : BT.709
Matrix coefficients            : BT.709

Audio
ID                             : 2
Format                         : AAC LC
Format/Info                    : Advanced Audio Codec Low Complexity
Codec ID                       : A_AAC-2
Duration                       : 2 min 14 s
Bit rate                       : 128 kb/s
Channel(s)                     : 2 channels
Channel layout                 : L R
Sampling rate                  : 44.1 kHz
Frame rate                     : 43.066 FPS (1024 SPF)
Compression mode               : Lossy
Stream size                    : 2.05 MiB (1%)
Default                        : Yes
Forced                         : No
下载地址:

****此区域为收费内容****    需支付 15 金币后可查看立即购买





上一篇:[4K国家地理] 车里雅宾斯克 (2020) [2160P/MKV/342MB]
下一篇:[4K国家地理] 飞行拍摄中的冰岛 (2021) [2160P/MKV/379MB]
回复

使用道具 举报

42

主题

1530

帖子

4402

积分

4K家园VIP

Rank: 9Rank: 9Rank: 9

积分
4402
发表于 2022-8-25 20:55:58 | 显示全部楼层
学习下
回复 支持 反对

使用道具 举报

3

主题

1359

帖子

4101

积分

4K家园VIP

Rank: 9Rank: 9Rank: 9

积分
4101
发表于 2022-8-25 20:55:59 | 显示全部楼层
4K应该不错,我也下个看看
回复 支持 反对

使用道具 举报

0

主题

8668

帖子

2万

积分

4K家园VIP

Rank: 9Rank: 9Rank: 9

积分
20210
发表于 2022-8-25 21:44:08 | 显示全部楼层
太好啦&萬分感謝版主的無私發佈分享%
回复 支持 反对

使用道具 举报

3

主题

1396

帖子

4020

积分

4K家园VIP

Rank: 9Rank: 9Rank: 9

积分
4020
发表于 2022-8-26 09:19:02 | 显示全部楼层
4K家园资源不错,前排支持
回复 支持 反对

使用道具 举报

5

主题

1504

帖子

4356

积分

4K家园VIP

Rank: 9Rank: 9Rank: 9

积分
4356
发表于 2022-8-27 11:10:30 | 显示全部楼层
不错 支持一个了
回复 支持 反对

使用道具 举报

37

主题

1524

帖子

4376

积分

4K家园VIP

Rank: 9Rank: 9Rank: 9

积分
4376
发表于 2022-8-28 03:55:18 来自手机 | 显示全部楼层
支持一下楼主发表的内容
回复 支持 反对

使用道具 举报

0

主题

8

帖子

23

积分

新手上路

Rank: 1

积分
23
发表于 2022-9-23 13:41:43 | 显示全部楼层

支持一下楼主发表的内容
回复 支持 反对

使用道具 举报

您需要登录后才可以回帖 登录 | 立即注册

本版积分规则

精彩图文
Archiver|手机版|TAG|Sitemap|新帖|专题|联系我们:邮箱: 4kjia.com@gmail.com   

4k家园   ©2019