[4K电影] 光年正传 [简繁粤中字] / Lightyear (2022) 4K高清版本下载

[复制链接]

2163

主题

2306

帖子

1万

积分

超级版主

Rank: 8Rank: 8

积分
16861
 楼主| 发表于 2022-8-3 20:25:02 | 显示全部楼层 |阅读模式
213809z57ato0efy1bfej5.png

◎译  名 光年正传 / 巴斯光年
◎片  名 Lightyear
◎年  代 2022
◎产  地 美国
◎类  别 科幻 / 动画 / 冒险
◎语  言 英语
◎上映日期 2022-06-15(意大利) / 2022-06-17(美国)
◎IMDb评分 5.5/10 from 56948 users
◎IMDb链接 https://www.imdb.com/title/tt10298810/
◎豆瓣评分 6.9/10 from 14384 users
◎豆瓣链接 https://movie.douban.com/subject/35284168/
◎片  长 105分钟
◎导  演 安格斯·麦克莱恩 Angus MacLane
◎编  剧 安格斯·麦克莱恩 Angus MacLane / 杰森·赫德利 Jason Headley / 马修·奥尔德里奇 Matthew Aldrich / 彼特·道格特 Pete Docter / 安德鲁·斯坦顿 Andrew Stanton / 乔·兰福特 Joe Ranft
◎演  员 克里斯·埃文斯 Chris Evans
       柯柯·帕尔莫 Keke Palmer
       彼得·孙 Peter Sohn
       塔伊加·维迪提 Taika Waititi
       戴尔·索尔斯 Dale Soules
       詹姆斯·布洛林 James Brolin
       乌佐·阿杜巴 Uzo Aduba
       玛丽·麦克唐纳-刘易斯 Mary McDonald-Lewis
       小伊塞亚·维特洛克 Isiah Whitlock Jr.
                   安格斯·麦克莱恩 Angus MacLane
                   比尔·哈德尔 Bill Hader
                   艾弗连·莱米雷斯 Efren Ramirez
                   凯拉·海斯顿 Keira Hairston


◎简  介


         皮克斯打造《玩具总动员》系列衍生动画电影《光年正传》,美队Chris Evans配音。讲述巴斯光年人类原型宇航员的起源故事,他从一个年轻的试飞员,变为大家熟知的太空游侠。

Video
ID : 1
Format : HEVC
Format/Info : High Efficiency Video Coding
Format profile : Main 10@L5@High
HDR format : Dolby Vision, Version 1.0, dvhe.05.06, BL+RPU
Codec ID : dvhe
Codec ID/Info : High Efficiency Video Coding with Dolby Vision
Duration : 1 h 45 min
Bit rate : 16.6 Mb/s
Width : 3 840 pixels
Height : 2 160 pixels
Display aspect ratio : 16:9
Frame rate mode : Constant
Frame rate : 23.976 (24000/1001) FPS
Color space : YUV
Chroma subsampling : 4:2:0
Bit depth : 10 bits
Bits/(Pixel*Frame) : 0.083
Stream size : 12.2 GiB (96%)
Default : Yes
Alternate group : 1
Color range : Full
Codec configuration box : hvcC+dvcC

Audio
ID : 2
Format : E-AC-3 JOC
Format/Info : Enhanced AC-3 with Joint Object Coding
Commercial name : Dolby Digital Plus with Dolby Atmos
Codec ID : ec-3
Duration : 1 h 45 min
Bit rate mode : Constant
Bit rate : 768 kb/s
Maximum bit rate : 811 kb/s
Channel(s) : 6 channels
Channel layout : L R C LFE Ls Rs
Sampling rate : 48.0 kHz
Frame rate : 31.250 FPS (1536 SPF)
Compression mode : Lossy
Stream size : 577 MiB (4%)
Language : English
Service kind : Complete Main
Default : Yes
Alternate group : 1
Complexity index : Not present / 16
Number of dynamic objects : 15
Bed channel count : 1 channel
Bed channel configuration : LFE

Text #1
ID : 4
Format : Timed Text
Codec ID : tx3g
Duration : 1 h 43 min
Bit rate mode : Variable
Bit rate : 69 b/s
Frame rate : 0.535 FPS
Stream size : 52.7 KiB (0%)
Language : English
Forced : No

Text #2
ID : 5
Format : Timed Text
Codec ID : tx3g
Duration : 1 h 44 min
Bit rate mode : Variable
Bit rate : 85 b/s
Frame rate : 0.660 FPS
Stream size : 65.0 KiB (0%)
Title : SDH
Language : English
Forced : No

Text #3
ID : 6
Format : Timed Text
Codec ID : tx3g
Duration : 1 h 43 min
Bit rate mode : Variable
Bit rate : 61 b/s
Frame rate : 0.508 FPS
Stream size : 46.6 KiB (0%)
Language : Czech
Forced : No

Text #4
ID : 7
Format : Timed Text
Codec ID : tx3g
Duration : 1 h 43 min
Bit rate mode : Variable
Bit rate : 60 b/s
Frame rate : 0.347 FPS
Stream size : 45.9 KiB (0%)
Language : Danish
Forced : No

Text #5
ID : 8
Format : Timed Text
Codec ID : tx3g
Duration : 1 h 43 min
Bit rate mode : Variable
Bit rate : 63 b/s
Frame rate : 0.491 FPS
Stream size : 47.6 KiB (0%)
Language : German
Forced : No

Text #6
ID : 9
Format : Timed Text
Codec ID : tx3g
Duration : 1 h 44 min
Bit rate mode : Variable
Bit rate : 76 b/s
Frame rate : 0.490 FPS
Stream size : 58.6 KiB (0%)
Title : SDH
Language : German
Forced : No

Text #7
ID : 10
Format : Timed Text
Codec ID : tx3g
Duration : 1 h 43 min
Bit rate mode : Variable
Bit rate : 107 b/s
Frame rate : 0.503 FPS
Stream size : 81.7 KiB (0%)
Language : Greek
Forced : No

Text #8
ID : 11
Format : Timed Text
Codec ID : tx3g
Duration : 1 h 43 min
Bit rate mode : Variable
Bit rate : 68 b/s
Frame rate : 0.506 FPS
Stream size : 51.8 KiB (0%)
Title : Latin American
Language : Spanish
Forced : No

Text #9
ID : 12
Format : Timed Text
Codec ID : tx3g
Duration : 1 h 44 min
Bit rate mode : Variable
Bit rate : 79 b/s
Frame rate : 0.540 FPS
Stream size : 60.9 KiB (0%)
Title : Latin American (SDH)
Language : Spanish
Forced : No

Text #10
ID : 13
Format : Timed Text
Codec ID : tx3g
Duration : 1 h 43 min
Bit rate mode : Variable
Bit rate : 63 b/s
Frame rate : 0.504 FPS
Stream size : 47.8 KiB (0%)
Language : Spanish
Forced : No

Text #11
ID : 14
Format : Timed Text
Codec ID : tx3g
Duration : 1 h 43 min
Bit rate mode : Variable
Bit rate : 66 b/s
Frame rate : 0.506 FPS
Stream size : 50.4 KiB (0%)
Language : Finnish
Forced : No

Text #12
ID : 15
Format : Timed Text
Codec ID : tx3g
Duration : 1 h 43 min
Bit rate mode : Variable
Bit rate : 71 b/s
Frame rate : 0.507 FPS
Stream size : 54.0 KiB (0%)
Title : Canadian
Language : French
Forced : No

Text #13
ID : 16
Format : Timed Text
Codec ID : tx3g
Duration : 1 h 44 min
Bit rate mode : Variable
Bit rate : 96 b/s
Frame rate : 0.708 FPS
Stream size : 73.6 KiB (0%)
Title : Canadian (SDH)
Language : French
Forced : No

Text #14
ID : 17
Format : Timed Text
Codec ID : tx3g
Duration : 1 h 43 min
Bit rate mode : Variable
Bit rate : 60 b/s
Frame rate : 0.485 FPS
Stream size : 45.8 KiB (0%)
Language : French
Forced : No

Text #15
ID : 18
Format : Timed Text
Codec ID : tx3g
Duration : 1 h 44 min
Bit rate mode : Variable
Bit rate : 73 b/s
Frame rate : 0.513 FPS
Stream size : 55.7 KiB (0%)
Title : SDH
Language : French
Forced : No

Text #16
ID : 19
Format : Timed Text
Codec ID : tx3g
Duration : 1 h 43 min
Bit rate mode : Variable
Bit rate : 66 b/s
Frame rate : 0.506 FPS
Stream size : 50.5 KiB (0%)
Language : Hungarian
Forced : No

Text #17
ID : 20
Format : Timed Text
Codec ID : tx3g
Duration : 1 h 43 min
Bit rate mode : Variable
Bit rate : 63 b/s
Frame rate : 0.506 FPS
Stream size : 48.3 KiB (0%)
Language : Icelandic
Forced : No

Text #18
ID : 21
Format : Timed Text
Codec ID : tx3g
Duration : 1 h 43 min
Bit rate mode : Variable
Bit rate : 62 b/s
Frame rate : 0.504 FPS
Stream size : 47.2 KiB (0%)
Language : Italian
Forced : No

Text #19
ID : 22
Format : Timed Text
Codec ID : tx3g
Duration : 1 h 43 min
Bit rate mode : Variable
Bit rate : 50 b/s
Frame rate : 0.459 FPS
Stream size : 38.0 KiB (0%)
Language : Japanese
Forced : No

Text #20
ID : 23
Format : Timed Text
Codec ID : tx3g
Duration : 1 h 43 min
Bit rate mode : Variable
Bit rate : 64 b/s
Frame rate : 0.504 FPS
Stream size : 49.1 KiB (0%)
Language : Korean
Forced : No

Text #21
ID : 24
Format : Timed Text
Codec ID : tx3g
Duration : 1 h 43 min
Bit rate mode : Variable
Bit rate : 56 b/s
Frame rate : 0.401 FPS
Stream size : 42.3 KiB (0%)
Language : Dutch
Forced : No

Text #22
ID : 25
Format : Timed Text
Codec ID : tx3g
Duration : 1 h 43 min
Bit rate mode : Variable
Bit rate : 59 b/s
Frame rate : 0.506 FPS
Stream size : 44.9 KiB (0%)
Language : Norwegian
Forced : No

Text #23
ID : 26
Format : Timed Text
Codec ID : tx3g
Duration : 1 h 43 min
Bit rate mode : Variable
Bit rate : 64 b/s
Frame rate : 0.501 FPS
Stream size : 48.9 KiB (0%)
Language : Polish
Forced : No

Text #24
ID : 27
Format : Timed Text
Codec ID : tx3g
Duration : 1 h 43 min
Bit rate mode : Variable
Bit rate : 65 b/s
Frame rate : 0.504 FPS
Stream size : 49.2 KiB (0%)
Title : Brazilian
Language : Portuguese
Forced : No

Text #25
ID : 28
Format : Timed Text
Codec ID : tx3g
Duration : 1 h 44 min
Bit rate mode : Variable
Bit rate : 81 b/s
Frame rate : 0.581 FPS
Stream size : 62.4 KiB (0%)
Title : Brazilian (SDH)
Language : Portuguese
Forced : No

Text #26
ID : 29
Format : Timed Text
Codec ID : tx3g
Duration : 1 h 43 min
Bit rate mode : Variable
Bit rate : 65 b/s
Frame rate : 0.504 FPS
Stream size : 49.7 KiB (0%)
Language : Portuguese
Forced : No

Text #27
ID : 30
Format : Timed Text
Codec ID : tx3g
Duration : 1 h 43 min
Bit rate mode : Variable
Bit rate : 68 b/s
Frame rate : 0.476 FPS
Stream size : 51.6 KiB (0%)
Language : Romanian
Forced : No

Text #28
ID : 31
Format : Timed Text
Codec ID : tx3g
Duration : 1 h 43 min
Bit rate mode : Variable
Bit rate : 60 b/s
Frame rate : 0.504 FPS
Stream size : 45.5 KiB (0%)
Language : Slovak
Forced : No

Text #29
ID : 32
Format : Timed Text
Codec ID : tx3g
Duration : 1 h 43 min
Bit rate mode : Variable
Bit rate : 58 b/s
Frame rate : 0.348 FPS
Stream size : 43.9 KiB (0%)
Language : Swedish
Forced : No

Text #30
ID : 33
Format : Timed Text
Codec ID : tx3g
Duration : 1 h 43 min
Bit rate mode : Variable
Bit rate : 65 b/s
Frame rate : 0.506 FPS
Stream size : 49.8 KiB (0%)
Language : Turkish
Forced : No

Text #31
ID : 34
Format : Timed Text
Codec ID : tx3g
Duration : 1 h 43 min
Bit rate mode : Variable
Bit rate : 56 b/s
Frame rate : 0.506 FPS
Stream size : 42.8 KiB (0%)
Title : 粤语
Language : 中文
Forced : No

Text #32
ID : 35
Format : Timed Text
Codec ID : tx3g
Duration : 1 h 43 min
Bit rate mode : Variable
Bit rate : 61 b/s
Frame rate : 0.507 FPS
Stream size : 46.1 KiB (0%)
Title : 简体
Language : 中文
Forced : No

Text #33
ID : 36
Format : Timed Text
Codec ID : tx3g
Duration : 1 h 43 min
Bit rate mode : Variable
Bit rate : 56 b/s
Frame rate : 0.518 FPS
Stream size : 42.6 KiB (0%)
Title : 繁体
Language : 中文
Forced : No


Menu
01:33:47.211 : Credits
01:35:51.668 : Post-Credits Scene 1
01:43:36.425 : Post-Credits Scene 2
01:44:44.493 : Post-Credits Scene 3


资源速度为零或资源敏感被和谐时,推荐使用qBittorrent等下载软件,有条件的推荐115更好的下载软件!

下载地址


游客,如果您要查看本帖隐藏内容请回复

游客,如果您要查看本帖隐藏内容请回复

游客,如果您要查看本帖隐藏内容请回复



相关其他4K高清版本链接:光年正传 / Lightyear (2022) 4K高清版本下载




上一篇:献祭 / Sacrifice (2020) 4K高清版本下载
下一篇:在雨中 / Inside The Rain (2020) 4K高清版本下载
回复

使用道具 举报

47

主题

1485

帖子

4249

积分

4K家园VIP

Rank: 9Rank: 9Rank: 9

积分
4249
发表于 2022-8-3 20:25:05 | 显示全部楼层
这个资源我记得是一套的,楼主还有没有
回复 支持 反对

使用道具 举报

51

主题

1534

帖子

4408

积分

4K家园VIP

Rank: 9Rank: 9Rank: 9

积分
4408
发表于 2022-8-3 20:34:05 | 显示全部楼层
4K版的应该更清晰吧
回复 支持 反对

使用道具 举报

56

主题

1537

帖子

4467

积分

4K家园VIP

Rank: 9Rank: 9Rank: 9

积分
4467
发表于 2022-8-3 21:32:20 | 显示全部楼层
4K应该不错,我也下个看看
回复 支持 反对

使用道具 举报

0

主题

1331

帖子

4021

积分

4K家园VIP

Rank: 9Rank: 9Rank: 9

积分
4021
发表于 2022-8-3 22:20:25 来自手机 | 显示全部楼层
我也是坐沙发的
回复 支持 反对

使用道具 举报

62

主题

1609

帖子

4663

积分

4K家园VIP

Rank: 9Rank: 9Rank: 9

积分
4663
发表于 2022-8-3 23:22:01 | 显示全部楼层
多发些资源啊
回复 支持 反对

使用道具 举报

0

主题

18

帖子

31

积分

新手上路

Rank: 1

积分
31
发表于 2022-8-4 14:56:05 | 显示全部楼层
谁看过,分够不,挣分下载啊
回复 支持 反对

使用道具 举报

0

主题

3

帖子

25

积分

新手上路

Rank: 1

积分
25
发表于 2022-8-5 00:09:48 | 显示全部楼层
感谢大佬分享,谢谢
回复 支持 反对

使用道具 举报

0

主题

1

帖子

6

积分

新手上路

Rank: 1

积分
6
发表于 2022-8-7 11:41:19 | 显示全部楼层
回复

使用道具 举报

0

主题

1

帖子

6

积分

新手上路

Rank: 1

积分
6
发表于 5 天前 来自手机 | 显示全部楼层
麦当劳赠送玩具是这个系列
回复 支持 反对

使用道具 举报

您需要登录后才可以回帖 登录 | 立即注册

本版积分规则

精彩图文
Archiver|手机版|TAG|Sitemap|新帖|专题|联系我们:邮箱: 4kjia.com@gmail.com   

4k家园   ©2019