玩家 / Players (2022) 第一季全/4K高清版本下载

[复制链接]

194

主题

217

帖子

2109

积分

版主

Rank: 7Rank: 7Rank: 7

积分
2109
 楼主| 发表于 2022-8-4 12:15:36 | 显示全部楼层 |阅读模式

p2872950750_副本.jpg

◎译  名 玩家
◎片  名 Players
◎年  代 2022
◎产  地 美国
◎类  别 喜剧
◎语  言 英语
◎上映日期 2022-06-16(美国)
◎IMDb评分 6.9/10 from 801 users
◎IMDb链接 https://www.imdb.com/title/tt15314636/
◎豆瓣评分 /10 from 0 users
◎豆瓣链接 https://douban.com/subject/35895971/
◎集  数 10
◎编  剧 提姆·麦考利夫 Tim McAuliffe / 马克·斯塔森科 Mark Stasenko
◎主  演 莫西斯·斯托姆 Moses Storm
       斯蒂芬·施耐德 Stephen Schneider
       伊利·亨利 Ely Henry
       卢克·坦尼 Luke Tennie
       兰斯·利姆 Lance Lim
       迈尔斯·穆森登 Miles Mussenden
       阿历萨·芒索 Alexa Mansour
       艾梅伯·马丁内斯 Amber Martinez
       埃文·阿诺德 Evan Arnold
       尤兰达·戴维斯 Youlanda Davis
       特伦斯·爱德蒙 Terrence Edmonds


◎简  介

  由皮博迪获奖的《美国汪达尔》创作者托尼·亚森达(Tony Yacenda)和丹·佩罗特(Dan Perrault)执导的《玩家》是一部喜剧纪录片风格的系列剧,讲述了一支虚构的职业传奇联盟电子竞技队,他们在经历了多年的近距离接触和心痛后,追求自己的第一个冠军。为了赢得这一切,他们需要他们的神童,一名17岁的新秀,和他们27岁的老兵放下自我,一起努力。

Video
ID : 1
Format : HEVC
Format/Info : High Efficiency Video Coding
Format profile : Main 10@L5@High
HDR format : Dolby Vision, Version 1.0, dvhe.05.06, BL+RPU
Codec ID : dvhe
Codec ID/Info : High Efficiency Video Coding with Dolby Vision
Duration : 34 min 46 s
Bit rate : 14.3 Mb/s
Width : 3 840 pixels
Height : 2 160 pixels
Display aspect ratio : 16:9
Frame rate mode : Constant
Frame rate : 23.976 (24000/1001) FPS
Color space : YUV
Chroma subsampling : 4:2:0
Bit depth : 10 bits
Bits/(Pixel*Frame) : 0.072
Stream size : 3.47 GiB (95%)
Default : Yes
Alternate group : 1
Encoded date : UTC 2022-06-16 06:48:51
Tagged date : UTC 2022-06-16 06:49:05
Codec configuration box : hvcC+dvcC

Audio
ID : 2
Format : E-AC-3 JOC
Format/Info : Enhanced AC-3 with Joint Object Coding
Commercial name : Dolby Digital Plus with Dolby Atmos
Codec ID : ec-3
Duration : 34 min 46 s
Bit rate mode : Constant
Bit rate : 768 kb/s
Maximum bit rate : 811 kb/s
Channel(s) : 6 channels
Channel layout : L R C LFE Ls Rs
Sampling rate : 48.0 kHz
Frame rate : 31.250 FPS (1536 SPF)
Compression mode : Lossy
Stream size : 191 MiB (5%)
Title : English
Language : English
Service kind : Complete Main
Default : Yes
Alternate group : 1
Tagged date : UTC 2022-06-16 06:49:05
Complexity index : Not present / 16
Number of dynamic objects : 15
Bed channel count : 1 channel
Bed channel configuration : LFE

Text
ID : 3
Format : Timed Text
Codec ID : tx3g
Duration : 33 min 13 s
Bit rate mode : Variable
Bit rate : 185 b/s
Frame rate : 0.809 FPS
Stream size : 45.1 KiB (0%)
Title : English
Language : English
Forced : No
Encoded date : UTC 2022-06-16 06:49:05
Tagged date : UTC 2022-06-16 06:49:05
下载地址:

游客,如果您要查看本帖隐藏内容请回复

游客,如果您要查看本帖隐藏内容请回复

游客,如果您要查看本帖隐藏内容请回复

游客,如果您要查看本帖隐藏内容请回复





上一篇:老头子 / The Old Man] (2022) 第一季全/4K高清版本下载
下一篇:雪国列车(剧版)[简繁中字](2020)第一至三季全/4K高清版本下载
回复

使用道具 举报

2

主题

1359

帖子

3945

积分

4K家园VIP

Rank: 9Rank: 9Rank: 9

积分
3945
发表于 2022-8-4 12:15:46 | 显示全部楼层
小白一个 顶一下
回复 支持 反对

使用道具 举报

0

主题

18

帖子

31

积分

新手上路

Rank: 1

积分
31
发表于 2022-8-4 14:54:50 | 显示全部楼层
谁看过 好看不,分不够  挣分啊
回复 支持 反对

使用道具 举报

0

主题

2

帖子

13

积分

新手上路

Rank: 1

积分
13
发表于 2022-8-5 12:48:22 | 显示全部楼层
玩家 / Players (2022) 第一季全/4K高清版本下载
回复 支持 反对

使用道具 举报

1

主题

1402

帖子

4054

积分

4K家园VIP

Rank: 9Rank: 9Rank: 9

积分
4054
发表于 6 天前 | 显示全部楼层
沙发???
回复 支持 反对

使用道具 举报

1

主题

1367

帖子

4117

积分

4K家园VIP

Rank: 9Rank: 9Rank: 9

积分
4117
发表于 3 天前 来自手机 | 显示全部楼层
占位编辑
回复 支持 反对

使用道具 举报

0

主题

1

帖子

6

积分

新手上路

Rank: 1

积分
6
发表于 3 天前 来自手机 | 显示全部楼层
谢谢分享
回复

使用道具 举报

您需要登录后才可以回帖 登录 | 立即注册

本版积分规则

精彩图文
Archiver|手机版|TAG|Sitemap|新帖|专题|联系我们:邮箱: 4kjia.com@gmail.com   

4k家园   ©2019