[4K电影] 鬼驱人 / Poltergeist (2015) 4K高清版本下载

[复制链接]

2163

主题

2306

帖子

1万

积分

超级版主

Rank: 8Rank: 8

积分
16861
 楼主| 发表于 2022-8-4 20:51:29 | 显示全部楼层 |阅读模式
QQ图片20220804204457_副本.png

◎标  题 鬼驱人
◎译  名 凶灵入侵 / 鬼哭神嚎:恶灵15(台) / 吵闹鬼
◎片  名 Poltergeist
◎年  代 2015
◎产  地 美国
◎类  别 惊悚 / 恐怖
◎语  言 英语
◎上映日期 2015-05-22(美国)
◎IMDb评分 4.9/10 from 58226 users
◎IMDb链接 https://www.imdb.com/title/tt1029360/
◎豆瓣评分 5.4/10 from 3827 users
◎豆瓣链接 https://movie.douban.com/subject/3012031/
◎片  长 93分钟
◎导  演 吉尔·克兰 Gil Kenan
◎编  剧 大卫·林赛-阿贝尔 David Lindsay-Abaire / 史蒂文·斯皮尔伯格 Steven Spielberg
◎演  员 山姆·洛克威尔 Sam Rockwell
       罗丝玛丽·德薇特 Rosemarie DeWitt
       萨克斯·沙比诺 Saxon Sharbino
       凯尔·凯特莱特 Kyle Catlett
       肯尼迪·克莱蒙兹 Kennedi Clements
       杰瑞德·哈里斯 Jared Harris
       简·亚当斯 Jane Adams
       苏珊·海沃德 Susan Heyward
       尼可拉斯·博朗 Nicholas Braun
       凯伦·伊万尼 Karen Ivany
       帕特里克·加洛 Patrick Garrow
       多米妮克·邓恩 Dominique Dunne
       道格·麦克劳德 Doug MacLeod


◎简  介


    埃里克·鲍恩先生(山姆·洛克威尔 Sam Rockwell 饰)一家五口搬进一所乡间别墅,却赫然发现这所房子是个幽灵盘据的鬼屋。随着时间的推移,房子里可怕的幽灵也开始对他们展开一系列攻击,甚至俘虏他们的小女儿麦迪逊(肯尼迪·克莱蒙兹 Kennedi Clements 饰 ),让她完全消失在电视机中,女孩心急如焚的父母,最后只好求助于超自然现象专家布洛克·鲍威尔博士(简·亚当斯 Jane Adams 饰),想尽办法要找回心爱的女儿……

Video
ID : 1
Format : HEVC
Format/Info : High Efficiency Video Coding
Format profile : Main 10@L5@Main
HDR format : SMPTE ST 2094 App 4, Version 1, HDR10+ Profile B compatible
Codec ID : V_MPEGH/ISO/HEVC
Duration : 1 h 40 min
Bit rate : 14.8 Mb/s
Width : 3 840 pixels
Height : 1 600 pixels
Display aspect ratio : 2.40:1
Frame rate mode : Constant
Frame rate : 23.976 (24000/1001) FPS
Color space : YUV
Chroma subsampling : 4:2:0
Bit depth : 10 bits
Bits/(Pixel*Frame) : 0.101
Stream size : 10.4 GiB (72%)
Default : Yes
Forced : No
Color range : Limited
Color primaries : BT.2020
Transfer characteristics : PQ
Matrix coefficients : BT.2020 non-constant
Mastering display color primaries : Display P3
Mastering display luminance : min: 0.0050 cd/m2, max: 1000 cd/m2

Audio #1
ID : 2
Format : DTS ES XLL
Format/Info : Digital Theater Systems
Commercial name : DTS-HD Master Audio
Codec ID : A_DTS
Duration : 1 h 40 min
Bit rate mode : Variable
Bit rate : 5 111 kb/s
Channel(s) : 8 channels
Channel layout : C L R Ls Rs LFE Lb Rb
Sampling rate : 48.0 kHz
Frame rate : 93.750 FPS (512 SPF)
Bit depth : 24 bits
Compression mode : Lossless
Delay relative to video : 2 ms
Stream size : 3.60 GiB (25%)
Title : DTS-HD MA 7.1
Language : English
Default : Yes
Forced : No

Audio #2
ID : 3
Format : AC-3
Format/Info : Audio Coding 3
Commercial name : Dolby Digital
Codec ID : A_AC3
Duration : 1 h 40 min
Bit rate mode : Constant
Bit rate : 640 kb/s
Channel(s) : 6 channels
Channel layout : L R C LFE Ls Rs
Sampling rate : 48.0 kHz
Frame rate : 31.250 FPS (1536 SPF)
Compression mode : Lossy
Stream size : 462 MiB (3%)
Title : DD 5.1
Language : English
Service kind : Complete Main
Default : No
Forced : No

Text #1
ID : 4
Format : UTF-8
Codec ID : S_TEXT/UTF8
Codec ID/Info : UTF-8 Plain Text
Duration : 1 h 34 min
Bit rate : 52 b/s
Frame rate : 0.241 FPS
Count of elements : 1369
Stream size : 36.5 KiB (0%)
Language : English
Default : Yes
Forced : No

Text #2
ID : 5
Format : UTF-8
Codec ID : S_TEXT/UTF8
Codec ID/Info : UTF-8 Plain Text
Duration : 1 h 39 min
Bit rate : 56 b/s
Frame rate : 0.261 FPS
Count of elements : 1556
Stream size : 40.8 KiB (0%)
Title : SDH
Language : English
Default : No
Forced : No

Text #3
ID : 6
Format : UTF-8
Codec ID : S_TEXT/UTF8
Codec ID/Info : UTF-8 Plain Text
Duration : 1 h 39 min
Bit rate : 48 b/s
Frame rate : 0.210 FPS
Count of elements : 1251
Stream size : 35.2 KiB (0%)
Language : Danish
Default : No
Forced : No

Text #4
ID : 7
Format : UTF-8
Codec ID : S_TEXT/UTF8
Codec ID/Info : UTF-8 Plain Text
Duration : 1 h 39 min
Bit rate : 47 b/s
Frame rate : 0.210 FPS
Count of elements : 1249
Stream size : 34.7 KiB (0%)
Language : German
Default : No
Forced : No

Text #5
ID : 8
Format : UTF-8
Codec ID : S_TEXT/UTF8
Codec ID/Info : UTF-8 Plain Text
Duration : 1 h 39 min
Bit rate : 48 b/s
Frame rate : 0.209 FPS
Count of elements : 1243
Stream size : 34.9 KiB (0%)
Language : Spanish
Default : No
Forced : No

Text #6
ID : 9
Format : UTF-8
Codec ID : S_TEXT/UTF8
Codec ID/Info : UTF-8 Plain Text
Duration : 1 h 39 min
Bit rate : 48 b/s
Frame rate : 0.200 FPS
Count of elements : 1191
Stream size : 35.1 KiB (0%)
Language : Spanish
Default : No
Forced : No

Text #7
ID : 10
Format : UTF-8
Codec ID : S_TEXT/UTF8
Codec ID/Info : UTF-8 Plain Text
Duration : 1 h 39 min
Bit rate : 38 b/s
Frame rate : 0.207 FPS
Count of elements : 1231
Stream size : 27.7 KiB (0%)
Language : Finnish
Default : No
Forced : No

Text #8
ID : 11
Format : UTF-8
Codec ID : S_TEXT/UTF8
Codec ID/Info : UTF-8 Plain Text
Duration : 1 h 39 min
Bit rate : 39 b/s
Frame rate : 0.181 FPS
Count of elements : 1079
Stream size : 28.4 KiB (0%)
Language : French
Default : No
Forced : No

Text #9
ID : 12
Format : UTF-8
Codec ID : S_TEXT/UTF8
Codec ID/Info : UTF-8 Plain Text
Duration : 1 h 39 min
Bit rate : 49 b/s
Frame rate : 0.210 FPS
Count of elements : 1250
Stream size : 35.9 KiB (0%)
Language : French
Default : No
Forced : No

Text #10
ID : 13
Format : UTF-8
Codec ID : S_TEXT/UTF8
Codec ID/Info : UTF-8 Plain Text
Duration : 1 h 39 min
Bit rate : 45 b/s
Frame rate : 0.210 FPS
Count of elements : 1250
Stream size : 33.3 KiB (0%)
Language : Italian
Default : No
Forced : No

Text #11
ID : 14
Format : UTF-8
Codec ID : S_TEXT/UTF8
Codec ID/Info : UTF-8 Plain Text
Duration : 1 h 39 min
Bit rate : 37 b/s
Frame rate : 0.156 FPS
Count of elements : 927
Stream size : 27.5 KiB (0%)
Language : Dutch
Default : No
Forced : No

Text #12
ID : 15
Format : UTF-8
Codec ID : S_TEXT/UTF8
Codec ID/Info : UTF-8 Plain Text
Duration : 1 h 39 min
Bit rate : 42 b/s
Frame rate : 0.172 FPS
Count of elements : 1024
Stream size : 31.0 KiB (0%)
Language : Norwegian
Default : No
Forced : No

Text #13
ID : 16
Format : UTF-8
Codec ID : S_TEXT/UTF8
Codec ID/Info : UTF-8 Plain Text
Duration : 1 h 39 min
Bit rate : 42 b/s
Frame rate : 0.208 FPS
Count of elements : 1235
Stream size : 30.7 KiB (0%)
Language : Portuguese
Default : No
Forced : No

Text #14
ID : 17
Format : UTF-8
Codec ID : S_TEXT/UTF8
Codec ID/Info : UTF-8 Plain Text
Duration : 1 h 39 min
Bit rate : 41 b/s
Frame rate : 0.210 FPS
Count of elements : 1251
Stream size : 30.3 KiB (0%)
Language : Swedish
Default : No
Forced : No

Text #15
ID : 18
Format : UTF-8
Codec ID : S_TEXT/UTF8
Codec ID/Info : UTF-8 Plain Text
Duration : 1 h 39 min
Bit rate : 51 b/s
Frame rate : 0.211 FPS
Count of elements : 1254
Stream size : 37.1 KiB (0%)
Language : Turkish
Default : No
Forced : No

Menu
00:00:00.000 : en:00:00:00.000
00:04:56.338 : en:00:04:57.339
00:09:54.928 : en:00:09:55.929
00:16:25.443 : en:00:16:26.444
00:20:30.729 : en:00:20:31.730
00:22:33.227 : en:00:22:34.228
00:26:30.005 : en:00:26:31.006
00:30:00.882 : en:00:30:01.883
00:35:05.353 : en:00:35:06.354
00:37:26.661 : en:00:37:27.662
00:41:40.623 : en:00:41:41.624
00:46:54.103 : en:00:46:55.104
00:49:55.617 : en:00:49:56.618
00:53:40.133 : en:00:53:41.134
01:00:07.479 : en:01:00:08.480
01:04:27.322 : en:01:04:28.323
01:06:41.497 : en:01:06:42.498
01:09:38.591 : en:01:09:39.592
01:12:36.352 : en:01:12:37.353
01:16:05.185 : en:01:16:06.186
01:19:35.562 : en:01:19:36.563
01:25:22.075 : en:01:25:23.076
01:29:55.557 : en:01:29:56.558
01:35:00.778 : en:01:35:01.779


资源速度为零或资源敏感被和谐时,推荐使用qBittorrent等下载软件,有条件的推荐115更好的下载软件!

下载地址:


游客,如果您要查看本帖隐藏内容请回复





上一篇:在雨中 / Inside The Rain (2020) 4K高清版本下载
下一篇:13条命 [简繁中字] / Thirteen Lives (2022) 4K高清版本下载
回复

使用道具 举报

1

主题

1163

帖子

3509

积分

4K家园VIP

Rank: 9Rank: 9Rank: 9

积分
3509
发表于 2022-8-4 20:51:32 | 显示全部楼层
前排顶,很好!
回复 支持 反对

使用道具 举报

0

主题

1

帖子

6

积分

新手上路

Rank: 1

积分
6
发表于 2022-8-5 02:33:57 | 显示全部楼层
很好很好。。。
回复

使用道具 举报

3

主题

1320

帖子

3766

积分

4K家园VIP

Rank: 9Rank: 9Rank: 9

积分
3766
发表于 2022-8-5 16:44:29 | 显示全部楼层
占位编辑
回复 支持 反对

使用道具 举报

46

主题

1475

帖子

4261

积分

4K家园VIP

Rank: 9Rank: 9Rank: 9

积分
4261
发表于 2022-8-5 16:51:46 | 显示全部楼层
有空一起交流一下
回复 支持 反对

使用道具 举报

54

主题

1484

帖子

4298

积分

4K家园VIP

Rank: 9Rank: 9Rank: 9

积分
4298
发表于 2022-8-6 04:46:42 | 显示全部楼层
感谢楼主发帖,前排顶起
回复 支持 反对

使用道具 举报

40

主题

1554

帖子

4452

积分

4K家园VIP

Rank: 9Rank: 9Rank: 9

积分
4452
发表于 2022-8-6 06:16:38 | 显示全部楼层
小白一个 顶一下
回复 支持 反对

使用道具 举报

您需要登录后才可以回帖 登录 | 立即注册

本版积分规则

精彩图文
Archiver|手机版|TAG|Sitemap|新帖|专题|联系我们:邮箱: 4kjia.com@gmail.com   

4k家园   ©2019