[4K电影] 乐高星球大战:夏日假期 [简繁粤中字] (2022) 4K高清版本下载

[复制链接]

2163

主题

2306

帖子

1万

积分

超级版主

Rank: 8Rank: 8

积分
16861
 楼主| 发表于 2022-8-5 21:36:57 | 显示全部楼层 |阅读模式
QQ图片20220805211214_副本.png

◎标  题 乐高星球大战:夏日假期
◎译  名 LEGO星际大战:夏日假期(台) / The LEGO Holiday Special
◎片  名 Lego Star Wars: Summer Vacation
◎年  代 2022
◎产  地 美国
◎类  别 喜剧 / 动作 / 科幻 / 动画 / 奇幻 / 冒险
◎语  言 英语
◎上映日期 2022-08-05(美国网络)
◎IMDb评分 7.1/10 from 10 users
◎IMDb链接 https://www.imdb.com/title/tt20784210/
◎豆瓣评分 0/10 from 0 users
◎豆瓣链接 https://movie.douban.com/subject/35915734/
◎导  演 肯·坎宁安 Ken Cunningham
◎编  剧 大卫·谢恩 David Shayne
◎演  员 海伦·萨德勒 Helen Sadler
       杰克·格林 Jake Green
       凯莉·玛丽·陈 Kelly Marie Tran
       奥玛·本森·米勒 Omar Benson Miller
       安东尼·丹尼尔斯 Anthony Daniels
       比利·迪·威廉姆斯 Billy Dee Williams
       迪·布拉雷·贝克尔 Dee Bradley Baker
       詹姆斯·阿诺德·泰勒 James Arnold Taylor
       凯文·迈克尔·理查德森 Kevin Michael Richardson
       凯丽·卡伦 Kyliegh Curran
       马特·兰特尔 Matt Lanter
       马特·斯隆 Matt Sloan
       马修·伍德 Matthew Wood
       罗斯·马昆德 Ross Marquand
       谢尔碧·杨 Shelby Young
       特雷弗·德瓦 Trevor Devall
       托马斯·列农 Thomas Lennon
       保罗·F·汤普金斯 Paul F. Tompkins
       阿尔·杨科维克 'Weird Al' Yankovic

◎简  介

  《乐高星球大战:夏日假期》将于8月5日上线Disney+。

Video
ID : 1
Format : HEVC
Format/Info : High Efficiency Video Coding
Format profile : Main 10@L5@High
HDR format : Dolby Vision, Version 1.0, dvhe.05.06, BL+RPU
Codec ID : V_MPEGH/ISO/HEVC
Duration : 45 min 2 s
Bit rate : 16.5 Mb/s
Width : 3 840 pixels
Height : 2 160 pixels
Display aspect ratio : 16:9
Frame rate mode : Constant
Frame rate : 24.000 FPS
Color space : YUV
Chroma subsampling : 4:2:0
Bit depth : 10 bits
Bits/(Pixel*Frame) : 0.083
Stream size : 5.19 GiB (98%)
Language : English
Default : Yes
Forced : No
Color range : Full

Audio
ID : 2
Format : E-AC-3
Format/Info : Enhanced AC-3
Commercial name : Dolby Digital Plus
Codec ID : A_EAC3
Duration : 45 min 2 s
Bit rate mode : Constant
Bit rate : 256 kb/s
Channel(s) : 6 channels
Channel layout : L R C LFE Ls Rs
Sampling rate : 48.0 kHz
Frame rate : 31.250 FPS (1536 SPF)
Compression mode : Lossy
Stream size : 82.5 MiB (2%)
Language : English
Service kind : Complete Main
Default : Yes
Forced : No

Text #1
ID : 3
Format : UTF-8
Codec ID : S_TEXT/UTF8
Codec ID/Info : UTF-8 Plain Text
Duration : 43 min 57 s
Bit rate : 89 b/s
Frame rate : 0.282 FPS
Count of elements : 743
Stream size : 29.0 KiB (0%)
Title : English (SDH)
Language : English
Default : No
Forced : No

Text #2
ID : 4
Format : UTF-8
Codec ID : S_TEXT/UTF8
Codec ID/Info : UTF-8 Plain Text
Duration : 44 min 23 s
Bit rate : 75 b/s
Frame rate : 0.238 FPS
Count of elements : 633
Stream size : 24.7 KiB (0%)
Title : Čeština
Language : Czech
Default : No
Forced : No

Text #3
ID : 5
Format : UTF-8
Codec ID : S_TEXT/UTF8
Codec ID/Info : UTF-8 Plain Text
Duration : 44 min 23 s
Bit rate : 76 b/s
Frame rate : 0.199 FPS
Count of elements : 531
Stream size : 25.0 KiB (0%)
Title : Dansk
Language : Danish
Default : No
Forced : No

Text #4
ID : 6
Format : UTF-8
Codec ID : S_TEXT/UTF8
Codec ID/Info : UTF-8 Plain Text
Duration : 44 min 23 s
Bit rate : 86 b/s
Frame rate : 0.239 FPS
Count of elements : 637
Stream size : 28.0 KiB (0%)
Title : Deutsch
Language : German
Default : No
Forced : No

Text #5
ID : 7
Format : UTF-8
Codec ID : S_TEXT/UTF8
Codec ID/Info : UTF-8 Plain Text
Duration : 44 min 23 s
Bit rate : 142 b/s
Frame rate : 0.239 FPS
Count of elements : 636
Stream size : 46.3 KiB (0%)
Title : Greek
Language : Greek
Default : No
Forced : No

Text #6
ID : 8
Format : UTF-8
Codec ID : S_TEXT/UTF8
Codec ID/Info : UTF-8 Plain Text
Duration : 44 min 23 s
Bit rate : 80 b/s
Frame rate : 0.239 FPS
Count of elements : 637
Stream size : 26.2 KiB (0%)
Title : Español (Latinoamericano)
Language : Spanish
Default : No
Forced : No

Text #7
ID : 9
Format : UTF-8
Codec ID : S_TEXT/UTF8
Codec ID/Info : UTF-8 Plain Text
Duration : 44 min 23 s
Bit rate : 85 b/s
Frame rate : 0.239 FPS
Count of elements : 636
Stream size : 27.7 KiB (0%)
Title : Español
Language : Spanish
Default : No
Forced : No

Text #8
ID : 10
Format : UTF-8
Codec ID : S_TEXT/UTF8
Codec ID/Info : UTF-8 Plain Text
Duration : 44 min 23 s
Bit rate : 76 b/s
Frame rate : 0.239 FPS
Count of elements : 637
Stream size : 24.9 KiB (0%)
Title : Suomi
Language : Finnish
Default : No
Forced : No

Text #9
ID : 11
Format : UTF-8
Codec ID : S_TEXT/UTF8
Codec ID/Info : UTF-8 Plain Text
Duration : 44 min 1 s
Bit rate : 79 b/s
Frame rate : 0.294 FPS
Count of elements : 776
Stream size : 25.7 KiB (0%)
Title : Français
Language : French
Default : No
Forced : No

Text #10
ID : 12
Format : UTF-8
Codec ID : S_TEXT/UTF8
Codec ID/Info : UTF-8 Plain Text
Duration : 44 min 23 s
Bit rate : 81 b/s
Frame rate : 0.239 FPS
Count of elements : 637
Stream size : 26.4 KiB (0%)
Title : Magyar
Language : Hungarian
Default : No
Forced : No

Text #11
ID : 13
Format : UTF-8
Codec ID : S_TEXT/UTF8
Codec ID/Info : UTF-8 Plain Text
Duration : 44 min 23 s
Bit rate : 80 b/s
Frame rate : 0.239 FPS
Count of elements : 636
Stream size : 26.1 KiB (0%)
Title : Italiano
Language : Italian
Default : No
Forced : No

Text #12
ID : 14
Format : UTF-8
Codec ID : S_TEXT/UTF8
Codec ID/Info : UTF-8 Plain Text
Duration : 44 min 23 s
Bit rate : 78 b/s
Frame rate : 0.262 FPS
Count of elements : 699
Stream size : 25.6 KiB (0%)
Title : Japanese
Language : Japanese
Default : No
Forced : No

Text #13
ID : 15
Format : UTF-8
Codec ID : S_TEXT/UTF8
Codec ID/Info : UTF-8 Plain Text
Duration : 44 min 23 s
Bit rate : 85 b/s
Frame rate : 0.238 FPS
Count of elements : 634
Stream size : 27.8 KiB (0%)
Title : Korean
Language : Korean
Default : No
Forced : No

Text #14
ID : 16
Format : UTF-8
Codec ID : S_TEXT/UTF8
Codec ID/Info : UTF-8 Plain Text
Duration : 44 min 23 s
Bit rate : 70 b/s
Frame rate : 0.213 FPS
Count of elements : 568
Stream size : 23.0 KiB (0%)
Title : Nederlands
Language : Dutch
Default : No
Forced : No

Text #15
ID : 17
Format : UTF-8
Codec ID : S_TEXT/UTF8
Codec ID/Info : UTF-8 Plain Text
Duration : 44 min 23 s
Bit rate : 76 b/s
Frame rate : 0.239 FPS
Count of elements : 637
Stream size : 24.7 KiB (0%)
Title : Norsk
Language : Norwegian
Default : No
Forced : No

Text #16
ID : 18
Format : UTF-8
Codec ID : S_TEXT/UTF8
Codec ID/Info : UTF-8 Plain Text
Duration : 44 min 23 s
Bit rate : 80 b/s
Frame rate : 0.239 FPS
Count of elements : 637
Stream size : 26.1 KiB (0%)
Title : Polski
Language : Polish
Default : No
Forced : No

Text #17
ID : 19
Format : UTF-8
Codec ID : S_TEXT/UTF8
Codec ID/Info : UTF-8 Plain Text
Duration : 44 min 23 s
Bit rate : 83 b/s
Frame rate : 0.239 FPS
Count of elements : 636
Stream size : 27.1 KiB (0%)
Title : Português
Language : Portuguese
Default : No
Forced : No

Text #18
ID : 20
Format : UTF-8
Codec ID : S_TEXT/UTF8
Codec ID/Info : UTF-8 Plain Text
Duration : 44 min 23 s
Bit rate : 85 b/s
Frame rate : 0.239 FPS
Count of elements : 637
Stream size : 27.8 KiB (0%)
Title : Português (Brasil)
Language : Portuguese
Default : No
Forced : No

Text #19
ID : 21
Format : UTF-8
Codec ID : S_TEXT/UTF8
Codec ID/Info : UTF-8 Plain Text
Duration : 44 min 39 s
Bit rate : 85 b/s
Frame rate : 0.238 FPS
Count of elements : 638
Stream size : 27.9 KiB (0%)
Title : Română
Language : Romanian
Default : No
Forced : No

Text #20
ID : 22
Format : UTF-8
Codec ID : S_TEXT/UTF8
Codec ID/Info : UTF-8 Plain Text
Duration : 44 min 23 s
Bit rate : 78 b/s
Frame rate : 0.239 FPS
Count of elements : 637
Stream size : 25.5 KiB (0%)
Title : Slovenčina
Language : Slovak
Default : No
Forced : No

Text #21
ID : 23
Format : UTF-8
Codec ID : S_TEXT/UTF8
Codec ID/Info : UTF-8 Plain Text
Duration : 44 min 23 s
Bit rate : 76 b/s
Frame rate : 0.239 FPS
Count of elements : 637
Stream size : 25.0 KiB (0%)
Title : Svenska
Language : Swedish
Default : No
Forced : No

Text #22
ID : 24
Format : UTF-8
Codec ID : S_TEXT/UTF8
Codec ID/Info : UTF-8 Plain Text
Duration : 44 min 23 s
Bit rate : 80 b/s
Frame rate : 0.239 FPS
Count of elements : 636
Stream size : 26.3 KiB (0%)
Title : Türkçe
Language : Turkish
Default : No
Forced : No

Text #23
ID : 25
Format : UTF-8
Codec ID : S_TEXT/UTF8
Codec ID/Info : UTF-8 Plain Text
Duration : 44 min 23 s
Bit rate : 68 b/s
Frame rate : 0.239 FPS
Count of elements : 637
Stream size : 22.3 KiB (0%)
Title : 中文(粤语)
Language : 中文
Default : No
Forced : No

Text #24
ID : 26
Format : UTF-8
Codec ID : S_TEXT/UTF8
Codec ID/Info : UTF-8 Plain Text
Duration : 44 min 23 s
Bit rate : 65 b/s
Frame rate : 0.239 FPS
Count of elements : 636
Stream size : 21.3 KiB (0%)
Title : 中文(繁体)
Language : 中文
Default : No
Forced : No

Text #25
ID : 27
Format : UTF-8
Codec ID : S_TEXT/UTF8
Codec ID/Info : UTF-8 Plain Text
Duration : 44 min 23 s
Bit rate : 73 b/s
Frame rate : 0.239 FPS
Count of elements : 636
Stream size : 24.0 KiB (0%)
Title : 中文(简体)
Language : 中文
Default : No
Forced : No


资源速度为零或资源敏感被和谐时,推荐使用qBittorrent等下载软件,有条件的推荐115更好的下载软件!

下载地址:


游客,如果您要查看本帖隐藏内容请回复

游客,如果您要查看本帖隐藏内容请回复

游客,如果您要查看本帖隐藏内容请回复





上一篇:铁血战士:猎物 [简繁粤中字] / Prey (2022) 4K高清版本下载
下一篇:他们/她们 / They/Them (2022) 4K高清版本下载
回复

使用道具 举报

62

主题

1609

帖子

4663

积分

4K家园VIP

Rank: 9Rank: 9Rank: 9

积分
4663
发表于 2022-8-5 21:37:02 来自手机 | 显示全部楼层
为了三千积分!
回复 支持 反对

使用道具 举报

0

主题

1367

帖子

4115

积分

4K家园VIP

Rank: 9Rank: 9Rank: 9

积分
4115
发表于 2022-8-5 21:37:02 来自手机 | 显示全部楼层
LZ帖子不给力,勉强给回复下吧
回复 支持 反对

使用道具 举报

2

主题

1438

帖子

4152

积分

中级会员

Rank: 4

积分
4152
发表于 2022-8-9 02:31:54 | 显示全部楼层
众里寻他千百度,蓦然回首在这里!
回复 支持 反对

使用道具 举报

0

主题

7

帖子

71

积分

新手上路

Rank: 1

积分
71
发表于 2022-8-9 09:30:25 | 显示全部楼层
看看乐高的电影很减压哦
回复 支持 反对

使用道具 举报

1

主题

1329

帖子

4007

积分

4K家园VIP

Rank: 9Rank: 9Rank: 9

积分
4007
发表于 7 天前 来自手机 | 显示全部楼层
众里寻他千百度,蓦然回首在这里!
回复 支持 反对

使用道具 举报

38

主题

1494

帖子

4300

积分

4K家园VIP

Rank: 9Rank: 9Rank: 9

积分
4300
发表于 5 天前 | 显示全部楼层
没明白
回复 支持 反对

使用道具 举报

您需要登录后才可以回帖 登录 | 立即注册

本版积分规则

精彩图文
Archiver|手机版|TAG|Sitemap|新帖|专题|联系我们:邮箱: 4kjia.com@gmail.com   

4k家园   ©2019