[4K电影] 海绵宝宝:营救大冒险 (2020) 4K高清版本下载

[复制链接]

2333

主题

2482

帖子

1万

积分

超级版主

Rank: 8Rank: 8

积分
17979
 楼主| 发表于 2022-8-6 11:47:32 | 显示全部楼层 |阅读模式
QQ图片20220806113719_副本.png

◎译  名 海绵宝宝:营救大冒险 / It's a Wonderful Sponge / Spongebob Movie 3 / SpongeBob Squarepants 3 / 海绵宝宝:奔跑吧(台) / 海绵宝宝:急急脚走佬(港) / 海绵宝宝3
◎片  名 The SpongeBob Movie: Sponge on the Run
◎年  代 2020
◎产  地 美国,韩国
◎类  别 喜剧 / 动画 / 冒险
◎语  言 英语
◎上映日期 2020-08-14(加拿大) / 2020-11-06(中国大陆网络)
◎IMDb评分 5.9/10 from 17897 users
◎IMDb链接 https://www.imdb.com/title/tt4823776
◎豆瓣评分 6.1/10 from 11923 users
◎豆瓣链接 https://movie.douban.com/subject/26662159
◎片  长 91分钟
◎导  演 蒂姆·希尔 Tim Hill
◎编  剧 蒂姆·希尔 Tim Hill / 乔纳森·阿贝尔 Jonathan Aibel / 格伦·伯杰 Glenn Berger / 史蒂芬·海伦伯格 Stephen Hillenburg / 保罗·提比特 Paul Tibbitt
◎主  演 基努·里维斯 Keanu Reeves
       奥卡菲娜 Awkwafina
       克兰西·布朗 Clancy Brown
       汤姆·肯尼 Tom Kenny
       比尔·法格巴克 Bill Fagerbakke
       罗里·艾伦 Lori Alan
       劳伦斯先生 Mr. Lawrence
       玛丽·乔·卡特利特 Mary Jo Catlett
       罗德格尔·邦帕斯 Rodger Bumpass
       吉尔·塔利 Jill Talley
       卡罗琳·劳伦斯 Carolyn Lawrence
       维罗妮卡·阿利奇诺 Veronica Alicino


◎简  介


  《海绵宝宝:营救大冒险》讲述了海绵宝宝心爱的宠物小蜗被绑架后,海绵宝宝和派大星前往失落的大西洋城展开营救冒险的故事。在这场充满危险又妙趣横生的营救行动中,海绵宝宝和他的朋友们用实际行动证明了友谊的力量无限大!

Video
ID : 1
Format : HEVC
Format/Info : High Efficiency Video Coding
Format profile : Main 10@L5@High
HDR format : Dolby Vision, Version 1.0, dvhe.05.06, BL+RPU
Codec ID : dvhe
Codec ID/Info : High Efficiency Video Coding with Dolby Vision
Duration : 1 h 31 min
Bit rate : 14.2 Mb/s
Width : 3 840 pixels
Height : 2 080 pixels
Original height : 2 076 pixels
Display aspect ratio : 1.85:1
Original display aspect ratio : 1.85:1
Frame rate mode : Constant
Frame rate : 23.976 (24000/1001) FPS
Color space : YUV
Chroma subsampling : 4:2:0
Bit depth : 10 bits
Bits/(Pixel*Frame) : 0.074
Stream size : 9.06 GiB (95%)
Default : Yes
Alternate group : 1
Encoded date : UTC 2022-08-05 13:24:21
Tagged date : UTC 2022-08-05 13:25:19
Codec configuration box : hvcC+dvcC

Audio
ID : 2
Format : E-AC-3 JOC
Format/Info : Enhanced AC-3 with Joint Object Coding
Commercial name : Dolby Digital Plus with Dolby Atmos
Codec ID : ec-3
Duration : 1 h 31 min
Bit rate mode : Constant
Bit rate : 768 kb/s
Maximum bit rate : 811 kb/s
Channel(s) : 6 channels
Channel layout : L R C LFE Ls Rs
Sampling rate : 48.0 kHz
Frame rate : 31.250 FPS (1536 SPF)
Compression mode : Lossy
Stream size : 503 MiB (5%)
Title : English
Language : English
Service kind : Complete Main
Default : Yes
Alternate group : 1
Tagged date : UTC 2022-08-05 13:25:19
Complexity index : Not present / 16
Number of dynamic objects : 15
Bed channel count : 1 channel
Bed channel configuration : LFE

Text #1
ID : 3
Format : Timed Text
Codec ID : tx3g
Duration : 1 h 22 min
Bit rate mode : Variable
Bit rate : 78 b/s
Frame rate : 0.525 FPS
Stream size : 47.1 KiB (0%)
Title : English
Language : English
Forced : No
Encoded date : UTC 2022-08-05 13:25:19
Tagged date : UTC 2022-08-05 13:25:19

Text #2
ID : 4
Format : Timed Text
Codec ID : tx3g
Duration : 1 h 30 min
Bit rate mode : Variable
Bit rate : 88 b/s
Frame rate : 0.628 FPS
Stream size : 57.8 KiB (0%)
Title : English
Language : English
Forced : No
Encoded date : UTC 2022-08-05 13:25:19
Tagged date : UTC 2022-08-05 13:25:19

Text #3
ID : 5
Format : Timed Text
Codec ID : tx3g
Duration : 1 h 31 min
Bit rate mode : Variable
Bit rate : 59 b/s
Frame rate : 0.475 FPS
Stream size : 39.6 KiB (0%)
Title : Danish
Language : Danish
Forced : No
Encoded date : UTC 2022-08-05 13:25:19
Tagged date : UTC 2022-08-05 13:25:19

Text #4
ID : 6
Format : Timed Text
Codec ID : tx3g
Duration : 1 h 31 min
Bit rate mode : Variable
Bit rate : 65 b/s
Frame rate : 0.488 FPS
Stream size : 43.8 KiB (0%)
Title : Finnish
Language : Finnish
Forced : No
Encoded date : UTC 2022-08-05 13:25:19
Tagged date : UTC 2022-08-05 13:25:19

Text #5
ID : 7
Format : Timed Text
Codec ID : tx3g
Duration : 1 h 31 min
Bit rate mode : Variable
Bit rate : 66 b/s
Frame rate : 0.461 FPS
Stream size : 44.1 KiB (0%)
Title : Korean
Language : Korean
Forced : No
Encoded date : UTC 2022-08-05 13:25:19
Tagged date : UTC 2022-08-05 13:25:19

Text #6
ID : 8
Format : Timed Text
Codec ID : tx3g
Duration : 1 h 31 min
Bit rate mode : Variable
Bit rate : 68 b/s
Frame rate : 0.487 FPS
Stream size : 45.8 KiB (0%)
Title : Norwegian
Language : Norwegian
Forced : No
Encoded date : UTC 2022-08-05 13:25:19
Tagged date : UTC 2022-08-05 13:25:19

Text #7
ID : 9
Format : Timed Text
Codec ID : tx3g
Duration : 1 h 31 min
Bit rate mode : Variable
Bit rate : 70 b/s
Frame rate : 0.486 FPS
Stream size : 46.8 KiB (0%)
Title : Swedish
Language : Swedish
Forced : No
Encoded date : UTC 2022-08-05 13:25:19
Tagged date : UTC 2022-08-05 13:25:19


资源速度为零或资源敏感被和谐时,推荐使用qBittorrent等下载软件,有条件的推荐115更好的下载软件!

下载地址:


游客,如果您要查看本帖隐藏内容请回复

游客,如果您要查看本帖隐藏内容请回复

游客,如果您要查看本帖隐藏内容请回复





上一篇:48小时闯天关 / Another 48 Hrs (1990) 4K高清版本下载
下一篇:猫王 [简繁中字] / Elvis (2022) 4K高清版本下载
回复

使用道具 举报

22

主题

1235

帖子

3695

积分

4K家园VIP

Rank: 9Rank: 9Rank: 9

积分
3695
发表于 2022-8-6 11:47:36 | 显示全部楼层
好,很好,非常好!
回复 支持 反对

使用道具 举报

41

主题

1543

帖子

4461

积分

4K家园VIP

Rank: 9Rank: 9Rank: 9

积分
4461
发表于 2022-8-6 11:47:36 | 显示全部楼层
感谢推荐,确实不错
回复 支持 反对

使用道具 举报

0

主题

5

帖子

24

积分

新手上路

Rank: 1

积分
24
发表于 2022-8-6 18:39:02 | 显示全部楼层
1111111
回复

使用道具 举报

3

主题

1726

帖子

4772

积分

4K家园VIP

Rank: 9Rank: 9Rank: 9

积分
4772
发表于 2022-8-6 20:36:25 来自手机 | 显示全部楼层
谢谢楼主
回复 支持 反对

使用道具 举报

3

主题

1400

帖子

4224

积分

4K家园VIP

Rank: 9Rank: 9Rank: 9

积分
4224
发表于 2022-8-6 21:10:58 | 显示全部楼层
秀起来~
回复 支持 反对

使用道具 举报

2

主题

1360

帖子

4100

积分

4K家园VIP

Rank: 9Rank: 9Rank: 9

积分
4100
发表于 2022-8-7 07:30:10 | 显示全部楼层
高手啊
回复 支持 反对

使用道具 举报

0

主题

6

帖子

30

积分

4K家园VIP

Rank: 9Rank: 9Rank: 9

积分
30
发表于 2022-8-7 14:28:58 | 显示全部楼层
感谢分享
回复

使用道具 举报

0

主题

1

帖子

10

积分

新手上路

Rank: 1

积分
10
发表于 2022-8-7 15:42:10 | 显示全部楼层
感谢楼主分享
回复 支持 反对

使用道具 举报

0

主题

477

帖子

2907

积分

注册会员

Rank: 2

积分
2907
发表于 2022-8-8 11:46:25 | 显示全部楼层
谢谢楼主
回复

使用道具 举报

您需要登录后才可以回帖 登录 | 立即注册

本版积分规则

精彩图文
Archiver|手机版|TAG|Sitemap|新帖|专题|联系我们:邮箱: 4kjia.com@gmail.com   

4k家园   ©2019