[4K电影] [纪录片] 海洋视野:珊瑚王国 50fps (2017) 4K高清版本下载

[复制链接]

2856

主题

3223

帖子

2万

积分

超级版主

Rank: 8Rank: 8

积分
27260
 楼主| 发表于 2022-8-27 19:02:59 | 显示全部楼层 |阅读模式
本帖最后由 叽里呱啦 于 2022-8-20 19:19 编辑

597e4ad3901755c72c8dac22bf34f2f611_副本.jpg

发行年份: 2017
国家: 美国
制片厂: Howard Hall Productions
类型: 纪录片、自然、视角
片长 : 00:57:00
导演: 霍华德·哈尔 / Howard Hall

简    介:

         六次艾美奖得主的水下摄影。印度尼西亚、斐济、菲律宾和马尔代夫的原始珊瑚礁浅水世界。水晶般清澈的海水折射阳光,将其变成万花筒般的生命和地质奇迹。

MediaInfo

Complete name               : G:\Торренты\Wild Window_Coral Kingdoms.mkv
Format                      : Matroska
Format version              : Version 4
File size                   : 6.42 GiB
Duration                    : 57 min 0 s
Overall bit rate            : 16.1 Mb/s
Encoded date                : UTC 2022-07-11 03:37:14
Writing application         : mkvmerge v60.0.0 ('Are We Copies?') 32-bit
Writing library             : libebml v1.4.2 + libmatroska v1.6.4

Video
ID                          : 1
Format                      : HEVC
Format/Info                 : High Efficiency Video Coding
Format profile              : Main 10@L5.1@Main
Codec ID                    : V_MPEGH/ISO/HEVC
Duration                    : 57 min 0 s
Bit rate                    : 15.9 Mb/s
Width                       : 3 840 pixels
Height                      : 2 160 pixels
Display aspect ratio        : 16:9
Frame rate mode             : Constant
Frame rate                  : 50.000 FPS
Standard                    : Component
Color space                 : YUV
Chroma subsampling          : 4:2:0 (Type 0)
Bit depth                   : 10 bits
Bits/(Pixel*Frame)          : 0.038
Stream size                 : 6.34 GiB (99%)
Default                     : Yes
Forced                      : No
Color range                 : Limited
Color primaries             : BT.709
Transfer characteristics    : BT.709
Matrix coefficients         : BT.709

Audio
ID                          : 2
Format                      : AAC LC
Format/Info                 : Advanced Audio Codec Low Complexity
Codec ID                    : A_AAC-2
Duration                    : 57 min 0 s
Bit rate                    : 192 kb/s
Channel(s)                  : 2 channels
Channel layout              : L R
Sampling rate               : 48.0 kHz
Frame rate                  : 46.875 FPS (1024 SPF)
Compression mode            : Lossy
Delay relative to video     : 76 ms
Stream size                 : 77.2 MiB (1%)
Language                    : Russian
Default                     : Yes
Forced                      : No
Wild Window_Coral Kingdoms.mkv_20220820_191418.303.jpg Wild Window_Coral Kingdoms.mkv_20220820_191501.360.jpg Wild Window_Coral Kingdoms.mkv_20220820_191507.032.jpg Wild Window_Coral Kingdoms.mkv_20220820_191514.312.jpg Wild Window_Coral Kingdoms.mkv_20220820_191521.032.jpg Wild Window_Coral Kingdoms.mkv_20220820_191528.096.jpg Wild Window_Coral Kingdoms.mkv_20220820_191535.162.jpg Wild Window_Coral Kingdoms.mkv_20220820_191542.392.jpg

下载地址:

****此区域为收费内容****    需支付 30 金币后可查看立即购买





上一篇:[纪录片] 海洋视野:鲸鱼 50fps (2017) 4K高清版本下载
下一篇:倒霉情歌 / Hard Luck Love Song (2020) 4K高清版本下载
回复

使用道具 举报

39

主题

1493

帖子

4275

积分

4K家园VIP

Rank: 9Rank: 9Rank: 9

积分
4275
发表于 2022-8-27 19:03:30 | 显示全部楼层
向楼主学习
回复 支持 反对

使用道具 举报

0

主题

8663

帖子

2万

积分

4K家园VIP

Rank: 9Rank: 9Rank: 9

积分
20189
发表于 2022-8-27 19:17:38 | 显示全部楼层
太好啦&萬分感謝版主的無私發佈分享%
回复 支持 反对

使用道具 举报

55

主题

1541

帖子

4455

积分

4K家园VIP

Rank: 9Rank: 9Rank: 9

积分
4455
发表于 2022-8-28 07:18:25 | 显示全部楼层
LZ帖子不给力,勉强给回复下吧
回复 支持 反对

使用道具 举报

0

主题

4

帖子

21

积分

新手上路

Rank: 1

积分
21
发表于 2022-8-28 08:05:47 | 显示全部楼层
感谢楼主的分享~
回复 支持 反对

使用道具 举报

43

主题

1518

帖子

4362

积分

4K家园VIP

Rank: 9Rank: 9Rank: 9

积分
4362
发表于 2022-8-28 13:59:14 | 显示全部楼层
顶起出售广告位
回复 支持 反对

使用道具 举报

0

主题

1368

帖子

3926

积分

4K家园VIP

Rank: 9Rank: 9Rank: 9

积分
3926
发表于 2022-8-28 14:04:44 | 显示全部楼层
回复 支持 反对

使用道具 举报

1

主题

1368

帖子

4122

积分

4K家园VIP

Rank: 9Rank: 9Rank: 9

积分
4122
发表于 2022-8-29 02:55:36 | 显示全部楼层
楼猪辛苦了,支持一下分享好资源
回复 支持 反对

使用道具 举报

您需要登录后才可以回帖 登录 | 立即注册

本版积分规则

精彩图文
Archiver|手机版|TAG|Sitemap|新帖|专题|联系我们:邮箱: 4kjia.com@gmail.com   

4k家园   ©2019