[4K电影] 倒霉情歌 / Hard Luck Love Song (2020) 4K高清版本下载

[复制链接]

2333

主题

2482

帖子

1万

积分

超级版主

Rank: 8Rank: 8

积分
17979
 楼主| 发表于 2022-8-12 09:19:24 | 显示全部楼层 |阅读模式
QQ图片20220812091207_副本.png

◎标  题 倒霉情歌
◎片  名 Hard Luck Love Song
◎年  代 2020
◎产  地 美国
◎类  别 剧情 / 爱情 / 惊悚 / 音乐
◎语  言 英语
◎上映日期 2020-10-24(奥斯汀电影节) / 2021-10-15(美国)
◎IMDb评分 5.3/10 from 383 users
◎IMDb链接 https://www.imdb.com/title/tt8709338/
◎豆瓣评分 0/10 from 0 users
◎豆瓣链接 https://movie.douban.com/subject/30276115/
◎片  长 104分钟
◎演  员 迈克尔·多曼 Michael Dorman
       索菲亚·布什 Sophia Bush
       德蒙特·莫罗尼 Dermot Mulroney
       罗伯特·菲茨杰拉德·迪格斯 RZA
       埃里克·罗伯茨 Eric Roberts
       布莱恩·萨卡 Brian Sacca
       梅洛拉·沃尔特斯 Melora Walters
       马克斯·阿西涅加 Max Arciniega
       泰勒·格雷 Taylor Gray
       兰德尔·瑞德 Randal Reeder
       Christian Calloway Christian Calloway
       Indrajit Sarkar Indrajit Sarkar
       Miguel Pérez Miguel Pérez


◎简  介

  索菲亚·布什(《超人总动员2》《芝加哥警署》)、迈克尔·多尔曼(《爱国者》《恐怖游轮》)将主演新片《倒霉情歌》(Hard Luck Love Song),基于Todd Snider的歌曲“Just Like Old Times”。Justin Corsbie执导,并与Craig Ugoretz编写剧本。讲述一个有魅力但运气不佳的民谣歌手杰西发现因为自己做出了错误决定而站在了人生的十字路口,而在偶遇了旧情人卡拉后,他的世界更加颠倒,他们苦涩的过去、卡拉自己的心魔、杰西目前面临的麻烦威胁着这次快乐的重逢。

Video
ID : 1
Format : HEVC
Format/Info : High Efficiency Video Coding
Format profile : Main 10@L5@Main
HDR format : SMPTE ST 2094 App 4, Version 1, HDR10+ Profile B compatible
Codec ID : V_MPEGH/ISO/HEVC
Duration : 1 h 44 min
Bit rate : 15.0 Mb/s
Width : 3 840 pixels
Height : 1 600 pixels
Display aspect ratio : 2.40:1
Frame rate mode : Constant
Frame rate : 23.976 (24000/1001) FPS
Color space : YUV
Chroma subsampling : 4:2:0
Bit depth : 10 bits
Bits/(Pixel*Frame) : 0.102
Stream size : 10.9 GiB (96%)
Language : English
Default : Yes
Forced : No
Color range : Limited
Color primaries : BT.2020
Transfer characteristics : PQ
Matrix coefficients : BT.2020 non-constant
Mastering display color primaries : Display P3
Mastering display luminance : min: 0.0050 cd/m2, max: 1000 cd/m2
Maximum Content Light Level : 104 cd/m2
Maximum Frame-Average Light Level : 12 cd/m2

Audio
ID : 2
Format : E-AC-3
Format/Info : Enhanced AC-3
Commercial name : Dolby Digital Plus
Codec ID : A_EAC3
Duration : 1 h 44 min
Bit rate mode : Constant
Bit rate : 640 kb/s
Channel(s) : 6 channels
Channel layout : L R C LFE Ls Rs
Sampling rate : 48.0 kHz
Frame rate : 31.250 FPS (1536 SPF)
Compression mode : Lossy
Stream size : 478 MiB (4%)
Title : English
Language : English
Service kind : Complete Main
Default : Yes
Forced : No

Text
ID : 3
Format : UTF-8
Codec ID : S_TEXT/UTF8
Codec ID/Info : UTF-8 Plain Text
Duration : 1 h 44 min
Bit rate : 67 b/s
Frame rate : 0.273 FPS
Count of elements : 1703
Stream size : 51.1 KiB (0%)
Title : English (SDH)
Language : English
Default : No
Forced : No


资源速度为零或资源敏感被和谐时,推荐使用qBittorrent等下载软件,有条件的推荐115更好的下载软件!

下载地址:


游客,如果您要查看本帖隐藏内容请回复






上一篇:[纪录片] 海洋视野:珊瑚王国 50fps (2017) 4K高清版本下载
下一篇:拯救圣诞记[简繁中字]The.Christmas.Chronicles (2018)4K高清版本下载
回复

使用道具 举报

2

主题

1430

帖子

4308

积分

4K家园VIP

Rank: 9Rank: 9Rank: 9

积分
4308
发表于 2022-8-12 09:19:29 | 显示全部楼层
感谢分享
回复 支持 反对

使用道具 举报

0

主题

1615

帖子

4429

积分

4K家园VIP

Rank: 9Rank: 9Rank: 9

积分
4429
发表于 2022-8-12 10:35:23 来自手机 | 显示全部楼层
我也来顶一下..
回复 支持 反对

使用道具 举报

3

主题

1623

帖子

4465

积分

4K家园VIP

Rank: 9Rank: 9Rank: 9

积分
4465
发表于 2022-8-12 11:17:26 | 显示全部楼层
楼主这资源不错,我收藏了
回复 支持 反对

使用道具 举报

1

主题

1174

帖子

3542

积分

4K家园VIP

Rank: 9Rank: 9Rank: 9

积分
3542
发表于 2022-8-12 11:36:17 | 显示全部楼层
支持支持再支持
回复 支持 反对

使用道具 举报

49

主题

1490

帖子

4272

积分

4K家园VIP

Rank: 9Rank: 9Rank: 9

积分
4272
发表于 2022-8-12 12:05:21 | 显示全部楼层
我也顶起出售广告位
回复 支持 反对

使用道具 举报

您需要登录后才可以回帖 登录 | 立即注册

本版积分规则

精彩图文
Archiver|手机版|TAG|Sitemap|新帖|专题|联系我们:邮箱: 4kjia.com@gmail.com   

4k家园   ©2019