[4K电影] 沙丘 / The Dunes (2022) 4K高清版本下载

[复制链接]

2333

主题

2482

帖子

1万

积分

超级版主

Rank: 8Rank: 8

积分
17979
 楼主| 发表于 2022-8-12 10:43:25 | 显示全部楼层 |阅读模式
本帖最后由 没完没了 于 2022-8-12 10:50 编辑

QQ图片20220812102211_副本.png

◎译  名 沙丘
◎片  名 The Dunes
◎年  代 2021
◎产  地 澳大利亚
◎类  别 惊悚
◎语  言 英语
◎上映日期 2021 年 12 月 11 日(澳大利亚)
◎IMDb评分 6.2/10 from 2499 users
◎IMDb链接 https://www.imdb.com/title/tt6910678/
◎豆瓣评分 0/10 from 0 users
◎豆瓣链接 https://movie.douban.com/subject/30135111/
◎片  长 988分钟
◎导  演 马丁·科平 Martin Copping
◎编  剧 马丁·科平 Martin Copping
◎主  演 乔纳森·巴克利 Jonathon Buckley
       蒂姆·菲利普斯 Tim Phillipps
       雅辛塔·斯泰普顿 Jacinta Stapleton
       亚历山德拉·戴维斯 Alexandra Davies
       玛丽亚·沃尔克 Maria Volk
       马丁·科平 Martin Copping
       里奇·保罗 Rich Paul
       凯特·尼尔森 Kate Neilson
       塔蒂亚娜·索科洛娃 Tatiana Sokolova
       大卫·罗斯·帕特森 David Ross Paterson
       格雷戈里·J·弗莱尔 Gregory J. Fryer
       克莱德·波琳 Clyde Boraine
       蒂莫西·奥德怀尔 Timothy O'Dwyer
       罗宾·科平 Robin Copping




◎简  介


            一位来自《洛杉矶时报》的著名记者回到了他的家乡沙丘,当他在那里的时候,一个来自他过去的神秘人物出现了并威胁着他的整个存在。

Video
ID : 1
Format : HEVC
Format/Info : High Efficiency Video Coding
Format profile : Main@L5@High
Codec ID : V_MPEGH/ISO/HEVC
Duration : 1 h 27 min
Bit rate : 14.0 Mb/s
Width : 3 840 pixels
Height : 2 160 pixels
Display aspect ratio : 16:9
Frame rate mode : Constant
Frame rate : 24.000 FPS
Color space : YUV
Chroma subsampling : 4:2:0
Bit depth : 8 bits
Bits/(Pixel*Frame) : 0.070
Stream size : 8.52 GiB (97%)
Default : Yes
Forced : No
Color range : Limited
Color primaries : BT.709
Transfer characteristics : BT.709
Matrix coefficients : BT.709

Audio
ID : 2
Format : E-AC-3
Format/Info : Enhanced AC-3
Commercial name : Dolby Digital Plus
Codec ID : A_EAC3
Duration : 1 h 27 min
Bit rate mode : Constant
Bit rate : 384 kb/s
Channel(s) : 6 channels
Channel layout : L R C LFE Ls Rs
Sampling rate : 48.0 kHz
Frame rate : 31.250 FPS (1536 SPF)
Compression mode : Lossy
Stream size : 240 MiB (3%)
Language : English
Service kind : Complete Main
Default : Yes
Forced : No

Text #1
ID : 3
Format : UTF-8
Codec ID : S_TEXT/UTF8
Codec ID/Info : UTF-8 Plain Text
Duration : 1 h 19 min
Bit rate : 41 b/s
Frame rate : 0.195 FPS
Count of elements : 937
Stream size : 24.3 KiB (0%)
Language : English
Default : No
Forced : No

Text #2
ID : 4
Format : UTF-8
Codec ID : S_TEXT/UTF8
Codec ID/Info : UTF-8 Plain Text
Duration : 1 h 26 min
Bit rate : 42 b/s
Frame rate : 0.204 FPS
Count of elements : 1058
Stream size : 26.8 KiB (0%)
Title : SDH
Language : English
Default : No
Forced : No

资源速度为零或资源敏感被和谐时,推荐使用qBittorrent等下载软件,有条件的推荐115更好的下载软件!

下载地址:


游客,如果您要查看本帖隐藏内容请回复






上一篇:法兰西特派 [简繁粤中字] (2021) 4K高清版本下载
下一篇:仿生人妻子 / WifeLike (2022) 4K高清版本下载
回复

使用道具 举报

1

主题

1173

帖子

3539

积分

4K家园VIP

Rank: 9Rank: 9Rank: 9

积分
3539
发表于 2022-8-12 10:43:29 | 显示全部楼层
为保住菊花,这个一定得回复!
回复 支持 反对

使用道具 举报

0

主题

1738

帖子

4818

积分

4K家园VIP

Rank: 9Rank: 9Rank: 9

积分
4818
发表于 2022-8-12 10:43:30 | 显示全部楼层
楼主呀,,,您太有才了。。。
回复 支持 反对

使用道具 举报

0

主题

8668

帖子

2万

积分

4K家园VIP

Rank: 9Rank: 9Rank: 9

积分
20210
发表于 2022-8-12 10:51:51 | 显示全部楼层
太好啦&萬分感謝版主的無私發佈分享%
回复 支持 反对

使用道具 举报

0

主题

4

帖子

36

积分

新手上路

Rank: 1

积分
36
发表于 2022-8-12 11:33:53 来自手机 | 显示全部楼层
66666666
回复

使用道具 举报

0

主题

2

帖子

42

积分

4K家园VIP

Rank: 9Rank: 9Rank: 9

积分
42
发表于 2022-8-12 13:12:54 | 显示全部楼层
萬分感謝版主的無私發佈分享
回复 支持 反对

使用道具 举报

0

主题

2

帖子

13

积分

新手上路

Rank: 1

积分
13
发表于 2022-8-12 13:49:11 | 显示全部楼层
感谢分享
回复

使用道具 举报

0

主题

1

帖子

6

积分

新手上路

Rank: 1

积分
6
发表于 2022-8-13 00:58:28 | 显示全部楼层
就想看看这么好的网站是不是真的
回复 支持 反对

使用道具 举报

0

主题

2

帖子

13

积分

新手上路

Rank: 1

积分
13
发表于 2022-8-13 07:27:30 | 显示全部楼层
来了,感谢
回复

使用道具 举报

0

主题

477

帖子

2907

积分

注册会员

Rank: 2

积分
2907
发表于 2022-8-13 11:56:24 | 显示全部楼层
感謝版主的無私發佈
回复 支持 反对

使用道具 举报

您需要登录后才可以回帖 登录 | 立即注册

本版积分规则

精彩图文
Archiver|手机版|TAG|Sitemap|新帖|专题|联系我们:邮箱: 4kjia.com@gmail.com   

4k家园   ©2019