单身万岁 [简繁中字] (2022)第一至二季全/4K高清版本下载

[复制链接]

205

主题

228

帖子

2261

积分

版主

Rank: 7Rank: 7Rank: 7

积分
2261
 楼主| 发表于 2022-8-13 13:06:23 | 显示全部楼层 |阅读模式

p2615243295_副本.jpg

◎译  名 单身万岁 第一季 / How to Survive Being Single
◎片  名 Cómo Sobrevivir Soltero
◎年  代 2020
◎产  地 墨西哥
◎类  别 喜剧
◎语  言 西班牙语
◎上映日期 2020-06-26(墨西哥)
◎IMDb评分  6.5/10 from 2614 users 更新 : 2022-08-11
◎IMDb链接  https://www.imdb.com/title/tt8980700/
◎豆瓣评分 0/10 from 0 users
◎豆瓣链接 https://douban.com/subject/35086934/
◎集  数 13
◎主  演 塞巴斯蒂安·苏里塔 Sebastián Zurita
                   塔托·亚历山大 Tato Alexander
                   罗伯托·弗洛雷斯 Roberto Flores
                   法布里齐奥·桑蒂尼 Fabrizio Santini
                   奥克塔维奥·希诺科萨 Octavio Hinojosa
                   卢卡·戈麦斯·罗布莱多 Lucía Gómez-Robledo
                   帕梅拉·阿尔曼扎 Pamela Almanza
                   亚历杭德罗·库埃塔拉 Alejandro Cuétara
                   阿米琳·阿贝莱拉 Amielynn Abellera
                   埃里克·维加 Erik Vega
                   马塞拉·吉拉多 Marcela Guirado
                   马里奥·阿尔贝托·蒙罗伊 Mario Alberto Monroy
                   吉列尔莫·维列加斯 Guillermo Villegas
                   古斯塔沃·埃格拉夫 Gustavo Egelhaaf
                   玛丽亚·卡斯塔涅达 María Castañeda
                   保利娜·吉尔 Paulina Gil
                   路易莎·卢卢 Luisa Lulú
                   安东尼奥·福蒂埃 Antonio Fortier


◎简  介

  塞巴斯蒂安是一位崭露头角的墨西哥演员,他似乎拥有一切,直到他被扔回了曲折的约会世界,才意识到自己没有约会“游戏”。他被迫投入了剩下的“最佳兄弟”团队的怀抱,发现自己并不是唯一一个苦苦寻找爱情的命运多舛的千禧一代。

Video
ID : 1
Format : HEVC
Format/Info : High Efficiency Video Coding
Format profile : Main 10@L5@Main
HDR format : SMPTE ST 2094 App 4, Version 1, HDR10+ Profile B compatible
Codec ID : V_MPEGH/ISO/HEVC
Duration : 35 min 57 s
Bit rate : 14.3 Mb/s
Width : 3 840 pixels
Height : 2 160 pixels
Display aspect ratio : 16:9
Frame rate mode : Constant
Frame rate : 23.976 (24000/1001) FPS
Color space : YUV
Chroma subsampling : 4:2:0
Bit depth : 10 bits
Bits/(Pixel*Frame) : 0.072
Stream size : 3.60 GiB (96%)
Language : Spanish
Default : Yes
Forced : No
Color range : Limited
Color primaries : BT.2020
Transfer characteristics : PQ
Matrix coefficients : BT.2020 non-constant
Mastering display color primaries : Display P3
Mastering display luminance : min: 0.0001 cd/m2, max: 1000 cd/m2
Maximum Content Light Level : 1005 cd/m2
Maximum Frame-Average Light Level : 103 cd/m2

Audio
ID : 2
Format : E-AC-3
Format/Info : Enhanced AC-3
Commercial name : Dolby Digital Plus
Codec ID : A_EAC3
Duration : 35 min 57 s
Bit rate mode : Constant
Bit rate : 640 kb/s
Channel(s) : 6 channels
Channel layout : L R C LFE Ls Rs
Sampling rate : 48.0 kHz
Frame rate : 31.250 FPS (1536 SPF)
Compression mode : Lossy
Stream size : 165 MiB (4%)
Language : Spanish
Service kind : Complete Main
Default : Yes
Forced : No

Text #1
ID : 3
Format : UTF-8
Codec ID : S_TEXT/UTF8
Codec ID/Info : UTF-8 Plain Text
Duration : 33 min 23 s
Bit rate : 72 b/s
Frame rate : 0.254 FPS
Count of elements : 509
Stream size : 17.7 KiB (0%)
Title : English (forced)
Language : English
Default : Yes
Forced : Yes

Text #2
ID : 4
Format : UTF-8
Codec ID : S_TEXT/UTF8
Codec ID/Info : UTF-8 Plain Text
Duration : 33 min 29 s
Bit rate : 85 b/s
Frame rate : 0.312 FPS
Count of elements : 626
Stream size : 21.1 KiB (0%)
Title : Español (SDH)
Language : Spanish
Default : No
Forced : No

Text #3
ID : 5
Format : UTF-8
Codec ID : S_TEXT/UTF8
Codec ID/Info : UTF-8 Plain Text
Duration : 34 min 53 s
Bit rate : 113 b/s
Frame rate : 0.246 FPS
Count of elements : 516
Stream size : 28.9 KiB (0%)
Title : العربية
Language : Arabic
Default : No
Forced : No

Text #4
ID : 6
Format : UTF-8
Codec ID : S_TEXT/UTF8
Codec ID/Info : UTF-8 Plain Text
Duration : 34 min 53 s
Bit rate : 65 b/s
Frame rate : 0.246 FPS
Count of elements : 515
Stream size : 16.7 KiB (0%)
Title : Čeština
Language : Czech
Default : No
Forced : No

Text #5
ID : 7
Format : UTF-8
Codec ID : S_TEXT/UTF8
Codec ID/Info : UTF-8 Plain Text
Duration : 34 min 53 s
Bit rate : 67 b/s
Frame rate : 0.246 FPS
Count of elements : 516
Stream size : 17.3 KiB (0%)
Title : Dansk
Language : Danish
Default : No
Forced : No

Text #6
ID : 8
Format : UTF-8
Codec ID : S_TEXT/UTF8
Codec ID/Info : UTF-8 Plain Text
Duration : 34 min 53 s
Bit rate : 68 b/s
Frame rate : 0.246 FPS
Count of elements : 516
Stream size : 17.5 KiB (0%)
Title : Deutsch
Language : German
Default : No
Forced : No

Text #7
ID : 9
Format : UTF-8
Codec ID : S_TEXT/UTF8
Codec ID/Info : UTF-8 Plain Text
Duration : 34 min 53 s
Bit rate : 118 b/s
Frame rate : 0.246 FPS
Count of elements : 516
Stream size : 30.2 KiB (0%)
Title : Ελληνικά
Language : Greek
Default : No
Forced : No

Text #8
ID : 10
Format : UTF-8
Codec ID : S_TEXT/UTF8
Codec ID/Info : UTF-8 Plain Text
Duration : 34 min 53 s
Bit rate : 64 b/s
Frame rate : 0.246 FPS
Count of elements : 516
Stream size : 16.4 KiB (0%)
Title : Suomi
Language : Finnish
Default : No
Forced : No

Text #9
ID : 11
Format : UTF-8
Codec ID : S_TEXT/UTF8
Codec ID/Info : UTF-8 Plain Text
Duration : 34 min 53 s
Bit rate : 68 b/s
Frame rate : 0.246 FPS
Count of elements : 516
Stream size : 17.6 KiB (0%)
Title : Filipino
Language : fil
Default : No
Forced : No

Text #10
ID : 12
Format : UTF-8
Codec ID : S_TEXT/UTF8
Codec ID/Info : UTF-8 Plain Text
Duration : 34 min 53 s
Bit rate : 67 b/s
Frame rate : 0.244 FPS
Count of elements : 511
Stream size : 17.2 KiB (0%)
Title : Français
Language : French
Default : No
Forced : No

Text #11
ID : 13
Format : UTF-8
Codec ID : S_TEXT/UTF8
Codec ID/Info : UTF-8 Plain Text
Duration : 34 min 53 s
Bit rate : 103 b/s
Frame rate : 0.246 FPS
Count of elements : 516
Stream size : 26.5 KiB (0%)
Title : עברית
Language : Hebrew
Default : No
Forced : No

Text #12
ID : 14
Format : UTF-8
Codec ID : S_TEXT/UTF8
Codec ID/Info : UTF-8 Plain Text
Duration : 34 min 53 s
Bit rate : 172 b/s
Frame rate : 0.246 FPS
Count of elements : 516
Stream size : 44.2 KiB (0%)
Title : हिन्दी
Language : Hindi
Default : No
Forced : No

Text #13
ID : 15
Format : UTF-8
Codec ID : S_TEXT/UTF8
Codec ID/Info : UTF-8 Plain Text
Duration : 34 min 53 s
Bit rate : 68 b/s
Frame rate : 0.246 FPS
Count of elements : 515
Stream size : 17.5 KiB (0%)
Title : Magyar
Language : Hungarian
Default : No
Forced : No

Text #14
ID : 16
Format : UTF-8
Codec ID : S_TEXT/UTF8
Codec ID/Info : UTF-8 Plain Text
Duration : 34 min 53 s
Bit rate : 64 b/s
Frame rate : 0.246 FPS
Count of elements : 515
Stream size : 16.6 KiB (0%)
Title : Indonesia
Language : Indonesian
Default : No
Forced : No

Text #15
ID : 17
Format : UTF-8
Codec ID : S_TEXT/UTF8
Codec ID/Info : UTF-8 Plain Text
Duration : 34 min 53 s
Bit rate : 66 b/s
Frame rate : 0.246 FPS
Count of elements : 516
Stream size : 17.0 KiB (0%)
Title : Italiano
Language : Italian
Default : No
Forced : No

Text #16
ID : 18
Format : UTF-8
Codec ID : S_TEXT/UTF8
Codec ID/Info : UTF-8 Plain Text
Duration : 34 min 53 s
Bit rate : 59 b/s
Frame rate : 0.271 FPS
Count of elements : 568
Stream size : 15.1 KiB (0%)
Title : 日本語
Language : Japanese
Default : No
Forced : No

Text #17
ID : 19
Format : UTF-8
Codec ID : S_TEXT/UTF8
Codec ID/Info : UTF-8 Plain Text
Duration : 34 min 53 s
Bit rate : 70 b/s
Frame rate : 0.246 FPS
Count of elements : 514
Stream size : 18.1 KiB (0%)
Title : 한국어
Language : Korean
Default : No
Forced : No

Text #18
ID : 20
Format : UTF-8
Codec ID : S_TEXT/UTF8
Codec ID/Info : UTF-8 Plain Text
Duration : 34 min 53 s
Bit rate : 67 b/s
Frame rate : 0.246 FPS
Count of elements : 516
Stream size : 17.1 KiB (0%)
Title : Bahasa Melayu
Language : Malay
Default : No
Forced : No

Text #19
ID : 21
Format : UTF-8
Codec ID : S_TEXT/UTF8
Codec ID/Info : UTF-8 Plain Text
Duration : 34 min 53 s
Bit rate : 64 b/s
Frame rate : 0.246 FPS
Count of elements : 516
Stream size : 16.4 KiB (0%)
Title : Norsk Bokmål
Language : Norwegian Bokmal
Default : No
Forced : No

Text #20
ID : 22
Format : UTF-8
Codec ID : S_TEXT/UTF8
Codec ID/Info : UTF-8 Plain Text
Duration : 34 min 53 s
Bit rate : 63 b/s
Frame rate : 0.246 FPS
Count of elements : 516
Stream size : 16.3 KiB (0%)
Title : Nederlands
Language : Dutch
Default : No
Forced : No

Text #21
ID : 23
Format : UTF-8
Codec ID : S_TEXT/UTF8
Codec ID/Info : UTF-8 Plain Text
Duration : 34 min 53 s
Bit rate : 60 b/s
Frame rate : 0.244 FPS
Count of elements : 510
Stream size : 15.5 KiB (0%)
Title : Polski
Language : Polish
Default : No
Forced : No

Text #22
ID : 24
Format : UTF-8
Codec ID : S_TEXT/UTF8
Codec ID/Info : UTF-8 Plain Text
Duration : 34 min 53 s
Bit rate : 65 b/s
Frame rate : 0.246 FPS
Count of elements : 516
Stream size : 16.8 KiB (0%)
Title : Português (Portugal)
Language : Portuguese
Default : No
Forced : No

Text #23
ID : 25
Format : UTF-8
Codec ID : S_TEXT/UTF8
Codec ID/Info : UTF-8 Plain Text
Duration : 35 min 8 s
Bit rate : 65 b/s
Frame rate : 0.241 FPS
Count of elements : 508
Stream size : 17.0 KiB (0%)
Title : Português (Brasil)
Language : Portuguese
Default : No
Forced : No

Text #24
ID : 26
Format : UTF-8
Codec ID : S_TEXT/UTF8
Codec ID/Info : UTF-8 Plain Text
Duration : 34 min 53 s
Bit rate : 69 b/s
Frame rate : 0.246 FPS
Count of elements : 516
Stream size : 17.8 KiB (0%)
Title : Română
Language : Romanian
Default : No
Forced : No

Text #25
ID : 27
Format : UTF-8
Codec ID : S_TEXT/UTF8
Codec ID/Info : UTF-8 Plain Text
Duration : 34 min 53 s
Bit rate : 109 b/s
Frame rate : 0.246 FPS
Count of elements : 515
Stream size : 28.0 KiB (0%)
Title : Русский
Language : Russian
Default : No
Forced : No

Text #26
ID : 28
Format : UTF-8
Codec ID : S_TEXT/UTF8
Codec ID/Info : UTF-8 Plain Text
Duration : 34 min 53 s
Bit rate : 68 b/s
Frame rate : 0.246 FPS
Count of elements : 516
Stream size : 17.4 KiB (0%)
Title : Svenska
Language : Swedish
Default : No
Forced : No

Text #27
ID : 29
Format : UTF-8
Codec ID : S_TEXT/UTF8
Codec ID/Info : UTF-8 Plain Text
Duration : 34 min 53 s
Bit rate : 174 b/s
Frame rate : 0.246 FPS
Count of elements : 516
Stream size : 44.5 KiB (0%)
Title : தமிழ்
Language : Tamil
Default : No
Forced : No

Text #28
ID : 30
Format : UTF-8
Codec ID : S_TEXT/UTF8
Codec ID/Info : UTF-8 Plain Text
Duration : 34 min 53 s
Bit rate : 165 b/s
Frame rate : 0.246 FPS
Count of elements : 516
Stream size : 42.4 KiB (0%)
Title : తెలుగు
Language : Telugu
Default : No
Forced : No

Text #29
ID : 31
Format : UTF-8
Codec ID : S_TEXT/UTF8
Codec ID/Info : UTF-8 Plain Text
Duration : 34 min 53 s
Bit rate : 165 b/s
Frame rate : 0.246 FPS
Count of elements : 516
Stream size : 42.3 KiB (0%)
Title : ไทย
Language : Thai
Default : No
Forced : No

Text #30
ID : 32
Format : UTF-8
Codec ID : S_TEXT/UTF8
Codec ID/Info : UTF-8 Plain Text
Duration : 34 min 53 s
Bit rate : 65 b/s
Frame rate : 0.246 FPS
Count of elements : 516
Stream size : 16.7 KiB (0%)
Title : Türkçe
Language : Turkish
Default : No
Forced : No

Text #31
ID : 33
Format : UTF-8
Codec ID : S_TEXT/UTF8
Codec ID/Info : UTF-8 Plain Text
Duration : 34 min 53 s
Bit rate : 68 b/s
Frame rate : 0.246 FPS
Count of elements : 516
Stream size : 17.5 KiB (0%)
Title : 中文(简体)
Language : Chinese
Default : No
Forced : No

Text #32
ID : 34
Format : UTF-8
Codec ID : S_TEXT/UTF8
Codec ID/Info : UTF-8 Plain Text
Duration : 34 min 53 s
Bit rate : 63 b/s
Frame rate : 0.246 FPS
Count of elements : 516
Stream size : 16.3 KiB (0%)
Title : 中文(繁體)
Language : Chinese
Default : No
Forced : No



p2873221312_副本.jpg

◎译  名 单身万岁 第二季/How to Survive Being Single
◎片  名 Cómo Sobrevivir Soltero
◎年  代 2022
◎产  地 墨西哥
◎类  别 喜剧
◎语  言 西班牙语
◎上映日期 2022-04-15(墨西哥)
◎IMDb评分 6.5/10 from 2614 users 更新 : 2022-08-11
◎IMDb链接 https://www.imdb.com/title/tt14440068/
◎豆瓣评分 0/10 from 0 users
◎豆瓣链接 https://douban.com/subject/35905103/
◎集  数 8
◎片  长 40
◎主  演 塞巴斯蒂安·苏里塔 Sebastián Zurita

                   塔托·亚历山大 Tato Alexander
                   罗伯托·弗洛雷斯 Roberto Flores
                   法布里齐奥·桑蒂尼 Fabrizio Santini
                   奥克塔维奥·希诺科萨 Octavio Hinojosa
                   卢卡·戈麦斯·罗布莱多 Lucía Gómez-Robledo
                   帕梅拉·阿尔曼扎 Pamela Almanza
                   亚历杭德罗·库埃塔拉 Alejandro Cuétara
                   阿米琳·阿贝莱拉 Amielynn Abellera
                   埃里克·维加 Erik Vega
                   马塞拉·吉拉多 Marcela Guirado
                   马里奥·阿尔贝托·蒙罗伊 Mario Alberto Monroy
                   吉列尔莫·维列加斯 Guillermo Villegas
                   古斯塔沃·埃格拉夫 Gustavo Egelhaaf
                   玛丽亚·卡斯塔涅达 María Castañeda
                   保利娜·吉尔 Paulina Gil
                   路易莎·卢卢 Luisa Lulú
                   安东尼奥·福蒂埃 Antonio Fortier



◎简  介

  塞巴斯蒂安向一位前女友致敬,她试图制作一部激励他创作的电影。他请纳塔莉亚(Natalia)来帮助制作这部电影,纳塔莉娅是一位富有同情心的制片人,也是他的得力助手,他们很难找到资金。最终,他们决定根据剧本上演一出戏。塞巴斯蒂安仍然因为最近的失利而痛苦,他决定不能开始新的关系。他反其道而行之,将不负责任的单身生活推向了极致。成功和名望打开了与各类女性相遇的大门,她们似乎填补了塞巴斯蒂安生活中日益明显的空白。在整个旅程中,塞巴斯蒂安与娜塔莉亚的关系更加密切。她是他的朋友和伴侣,但有一种不可否认的浪漫张力。塞巴斯蒂安被自己的事业和新发现的相关性蒙蔽了双眼,失去了浪漫的天性。塞巴斯蒂安和娜塔莉亚在一个晚上喝酒的过程中,压抑了自己的感情,然后越界了。当塞巴斯蒂安怀疑他们是否犯了错误时,娜塔莉亚觉得已经准备好谈恋爱了。

Video
ID : 1
Format : HEVC
Format/Info : High Efficiency Video Coding
Format profile : Main 10@L5@Main
HDR format : SMPTE ST 2094 App 4, Version 1, HDR10+ Profile B compatible
Codec ID : V_MPEGH/ISO/HEVC
Duration : 38 min 5 s
Bit rate : 13.7 Mb/s
Width : 3 840 pixels
Height : 2 160 pixels
Display aspect ratio : 16:9
Frame rate mode : Constant
Frame rate : 23.976 (24000/1001) FPS
Color space : YUV
Chroma subsampling : 4:2:0
Bit depth : 10 bits
Bits/(Pixel*Frame) : 0.069
Stream size : 3.65 GiB (95%)
Language : Spanish
Default : Yes
Forced : No
Color range : Limited
Color primaries : BT.2020
Transfer characteristics : PQ
Matrix coefficients : BT.2020 non-constant
Mastering display color primaries : Display P3
Mastering display luminance : min: 0.0001 cd/m2, max: 1000 cd/m2
Maximum Content Light Level : 1000 cd/m2
Maximum Frame-Average Light Level : 116 cd/m2

Audio
ID : 2
Format : E-AC-3
Format/Info : Enhanced AC-3
Commercial name : Dolby Digital Plus
Codec ID : A_EAC3
Duration : 38 min 5 s
Bit rate mode : Constant
Bit rate : 640 kb/s
Channel(s) : 6 channels
Channel layout : L R C LFE Ls Rs
Sampling rate : 48.0 kHz
Frame rate : 31.250 FPS (1536 SPF)
Compression mode : Lossy
Stream size : 174 MiB (4%)
Language : Spanish
Service kind : Complete Main
Default : Yes
Forced : No

Text #1
ID : 3
Format : UTF-8
Codec ID : S_TEXT/UTF8
Codec ID/Info : UTF-8 Plain Text
Duration : 36 min 51 s
Bit rate : 60 b/s
Frame rate : 0.289 FPS
Count of elements : 638
Stream size : 16.4 KiB (0%)
Title : English (forced)
Language : English
Default : Yes
Forced : Yes

Text #2
ID : 4
Format : UTF-8
Codec ID : S_TEXT/UTF8
Codec ID/Info : UTF-8 Plain Text
Duration : 34 min 26 s
Bit rate : 89 b/s
Frame rate : 0.265 FPS
Count of elements : 548
Stream size : 22.6 KiB (0%)
Title : Español (SDH)
Language : Spanish
Default : No
Forced : No

Text #3
ID : 5
Format : UTF-8
Codec ID : S_TEXT/UTF8
Codec ID/Info : UTF-8 Plain Text
Duration : 36 min 52 s
Bit rate : 104 b/s
Frame rate : 0.292 FPS
Count of elements : 645
Stream size : 28.1 KiB (0%)
Title : العربية
Language : Arabic
Default : No
Forced : No

Text #4
ID : 6
Format : UTF-8
Codec ID : S_TEXT/UTF8
Codec ID/Info : UTF-8 Plain Text
Duration : 36 min 50 s
Bit rate : 57 b/s
Frame rate : 0.290 FPS
Count of elements : 641
Stream size : 15.5 KiB (0%)
Title : Čeština
Language : Czech
Default : No
Forced : No

Text #5
ID : 7
Format : UTF-8
Codec ID : S_TEXT/UTF8
Codec ID/Info : UTF-8 Plain Text
Duration : 36 min 50 s
Bit rate : 60 b/s
Frame rate : 0.290 FPS
Count of elements : 642
Stream size : 16.3 KiB (0%)
Title : Dansk
Language : Danish
Default : No
Forced : No

Text #6
ID : 8
Format : UTF-8
Codec ID : S_TEXT/UTF8
Codec ID/Info : UTF-8 Plain Text
Duration : 36 min 50 s
Bit rate : 63 b/s
Frame rate : 0.290 FPS
Count of elements : 641
Stream size : 17.1 KiB (0%)
Title : Deutsch
Language : German
Default : No
Forced : No

Text #7
ID : 9
Format : UTF-8
Codec ID : S_TEXT/UTF8
Codec ID/Info : UTF-8 Plain Text
Duration : 36 min 52 s
Bit rate : 108 b/s
Frame rate : 0.291 FPS
Count of elements : 644
Stream size : 29.2 KiB (0%)
Title : Ελληνικά
Language : Greek
Default : No
Forced : No

Text #8
ID : 10
Format : UTF-8
Codec ID : S_TEXT/UTF8
Codec ID/Info : UTF-8 Plain Text
Duration : 36 min 51 s
Bit rate : 56 b/s
Frame rate : 0.291 FPS
Count of elements : 643
Stream size : 15.2 KiB (0%)
Title : Suomi
Language : Finnish
Default : No
Forced : No

Text #9
ID : 11
Format : UTF-8
Codec ID : S_TEXT/UTF8
Codec ID/Info : UTF-8 Plain Text
Duration : 36 min 50 s
Bit rate : 63 b/s
Frame rate : 0.289 FPS
Count of elements : 640
Stream size : 17.1 KiB (0%)
Title : Filipino
Language : fil
Default : No
Forced : No

Text #10
ID : 12
Format : UTF-8
Codec ID : S_TEXT/UTF8
Codec ID/Info : UTF-8 Plain Text
Duration : 36 min 50 s
Bit rate : 61 b/s
Frame rate : 0.287 FPS
Count of elements : 634
Stream size : 16.5 KiB (0%)
Title : Français
Language : French
Default : No
Forced : No

Text #11
ID : 13
Format : UTF-8
Codec ID : S_TEXT/UTF8
Codec ID/Info : UTF-8 Plain Text
Duration : 36 min 52 s
Bit rate : 98 b/s
Frame rate : 0.292 FPS
Count of elements : 645
Stream size : 26.5 KiB (0%)
Title : עברית
Language : Hebrew
Default : No
Forced : No

Text #12
ID : 14
Format : UTF-8
Codec ID : S_TEXT/UTF8
Codec ID/Info : UTF-8 Plain Text
Duration : 36 min 52 s
Bit rate : 152 b/s
Frame rate : 0.292 FPS
Count of elements : 645
Stream size : 41.2 KiB (0%)
Title : हिन्दी
Language : Hindi
Default : No
Forced : No

Text #13
ID : 15
Format : UTF-8
Codec ID : S_TEXT/UTF8
Codec ID/Info : UTF-8 Plain Text
Duration : 36 min 50 s
Bit rate : 64 b/s
Frame rate : 0.291 FPS
Count of elements : 643
Stream size : 17.5 KiB (0%)
Title : Magyar
Language : Hungarian
Default : No
Forced : No

Text #14
ID : 16
Format : UTF-8
Codec ID : S_TEXT/UTF8
Codec ID/Info : UTF-8 Plain Text
Duration : 36 min 50 s
Bit rate : 59 b/s
Frame rate : 0.291 FPS
Count of elements : 643
Stream size : 16.1 KiB (0%)
Title : Indonesia
Language : Indonesian
Default : No
Forced : No

Text #15
ID : 17
Format : UTF-8
Codec ID : S_TEXT/UTF8
Codec ID/Info : UTF-8 Plain Text
Duration : 36 min 50 s
Bit rate : 61 b/s
Frame rate : 0.291 FPS
Count of elements : 643
Stream size : 16.5 KiB (0%)
Title : Italiano
Language : Italian
Default : No
Forced : No

Text #16
ID : 18
Format : UTF-8
Codec ID : S_TEXT/UTF8
Codec ID/Info : UTF-8 Plain Text
Duration : 36 min 50 s
Bit rate : 61 b/s
Frame rate : 0.252 FPS
Count of elements : 558
Stream size : 16.7 KiB (0%)
Title : 日本語
Language : Japanese
Default : No
Forced : No

Text #17
ID : 19
Format : UTF-8
Codec ID : S_TEXT/UTF8
Codec ID/Info : UTF-8 Plain Text
Duration : 36 min 52 s
Bit rate : 71 b/s
Frame rate : 0.292 FPS
Count of elements : 645
Stream size : 19.2 KiB (0%)
Title : 한국어
Language : Korean
Default : No
Forced : No

Text #18
ID : 20
Format : UTF-8
Codec ID : S_TEXT/UTF8
Codec ID/Info : UTF-8 Plain Text
Duration : 36 min 50 s
Bit rate : 62 b/s
Frame rate : 0.291 FPS
Count of elements : 643
Stream size : 16.8 KiB (0%)
Title : Bahasa Melayu
Language : Malay
Default : No
Forced : No

Text #19
ID : 21
Format : UTF-8
Codec ID : S_TEXT/UTF8
Codec ID/Info : UTF-8 Plain Text
Duration : 36 min 50 s
Bit rate : 59 b/s
Frame rate : 0.291 FPS
Count of elements : 643
Stream size : 16.2 KiB (0%)
Title : Norsk Bokmål
Language : Norwegian Bokmal
Default : No
Forced : No

Text #20
ID : 22
Format : UTF-8
Codec ID : S_TEXT/UTF8
Codec ID/Info : UTF-8 Plain Text
Duration : 36 min 50 s
Bit rate : 58 b/s
Frame rate : 0.291 FPS
Count of elements : 643
Stream size : 15.9 KiB (0%)
Title : Nederlands
Language : Dutch
Default : No
Forced : No

Text #21
ID : 23
Format : UTF-8
Codec ID : S_TEXT/UTF8
Codec ID/Info : UTF-8 Plain Text
Duration : 36 min 50 s
Bit rate : 56 b/s
Frame rate : 0.285 FPS
Count of elements : 631
Stream size : 15.3 KiB (0%)
Title : Polski
Language : Polish
Default : No
Forced : No

Text #22
ID : 24
Format : UTF-8
Codec ID : S_TEXT/UTF8
Codec ID/Info : UTF-8 Plain Text
Duration : 36 min 50 s
Bit rate : 58 b/s
Frame rate : 0.290 FPS
Count of elements : 641
Stream size : 15.8 KiB (0%)
Title : Português (Brasil)
Language : Portuguese
Default : No
Forced : No

Text #23
ID : 25
Format : UTF-8
Codec ID : S_TEXT/UTF8
Codec ID/Info : UTF-8 Plain Text
Duration : 36 min 51 s
Bit rate : 60 b/s
Frame rate : 0.291 FPS
Count of elements : 643
Stream size : 16.3 KiB (0%)
Title : Português (Portugal)
Language : Portuguese
Default : No
Forced : No

Text #24
ID : 26
Format : UTF-8
Codec ID : S_TEXT/UTF8
Codec ID/Info : UTF-8 Plain Text
Duration : 36 min 50 s
Bit rate : 66 b/s
Frame rate : 0.291 FPS
Count of elements : 643
Stream size : 18.0 KiB (0%)
Title : Română
Language : Romanian
Default : No
Forced : No

Text #25
ID : 27
Format : UTF-8
Codec ID : S_TEXT/UTF8
Codec ID/Info : UTF-8 Plain Text
Duration : 36 min 52 s
Bit rate : 104 b/s
Frame rate : 0.292 FPS
Count of elements : 645
Stream size : 28.3 KiB (0%)
Title : Русский
Language : Russian
Default : No
Forced : No

Text #26
ID : 28
Format : UTF-8
Codec ID : S_TEXT/UTF8
Codec ID/Info : UTF-8 Plain Text
Duration : 36 min 50 s
Bit rate : 58 b/s
Frame rate : 0.289 FPS
Count of elements : 640
Stream size : 15.7 KiB (0%)
Title : Svenska
Language : Swedish
Default : No
Forced : No

Text #27
ID : 29
Format : UTF-8
Codec ID : S_TEXT/UTF8
Codec ID/Info : UTF-8 Plain Text
Duration : 36 min 52 s
Bit rate : 160 b/s
Frame rate : 0.292 FPS
Count of elements : 645
Stream size : 43.4 KiB (0%)
Title : தமிழ்
Language : Tamil
Default : No
Forced : No

Text #28
ID : 30
Format : UTF-8
Codec ID : S_TEXT/UTF8
Codec ID/Info : UTF-8 Plain Text
Duration : 36 min 52 s
Bit rate : 156 b/s
Frame rate : 0.292 FPS
Count of elements : 645
Stream size : 42.4 KiB (0%)
Title : తెలుగు
Language : Telugu
Default : No
Forced : No

Text #29
ID : 31
Format : UTF-8
Codec ID : S_TEXT/UTF8
Codec ID/Info : UTF-8 Plain Text
Duration : 36 min 52 s
Bit rate : 159 b/s
Frame rate : 0.292 FPS
Count of elements : 645
Stream size : 43.1 KiB (0%)
Title : ไทย
Language : Thai
Default : No
Forced : No

Text #30
ID : 32
Format : UTF-8
Codec ID : S_TEXT/UTF8
Codec ID/Info : UTF-8 Plain Text
Duration : 36 min 50 s
Bit rate : 61 b/s
Frame rate : 0.291 FPS
Count of elements : 643
Stream size : 16.6 KiB (0%)
Title : Türkçe
Language : Turkish
Default : No
Forced : No

Text #31
ID : 33
Format : UTF-8
Codec ID : S_TEXT/UTF8
Codec ID/Info : UTF-8 Plain Text
Duration : 36 min 52 s
Bit rate : 64 b/s
Frame rate : 0.292 FPS
Count of elements : 645
Stream size : 17.5 KiB (0%)
Title : 中文(简体)
Language : Chinese
Default : No
Forced : No

Text #32
ID : 34
Format : UTF-8
Codec ID : S_TEXT/UTF8
Codec ID/Info : UTF-8 Plain Text
Duration : 36 min 52 s
Bit rate : 57 b/s
Frame rate : 0.292 FPS
Count of elements : 645
Stream size : 15.6 KiB (0%)
Title : 中文(繁體)
Language : Chinese
Default : No
Forced : No
下载地址:

第一季
游客,如果您要查看本帖隐藏内容请回复


第二季
游客,如果您要查看本帖隐藏内容请回复





上一篇:这个傻瓜 / This Fool (2022) 第一季全/4K高清版本下载
下一篇:鲁保罗变装皇后秀:全明星 (2022) 第七季全/4K高清版本下载
回复

使用道具 举报

1

主题

1397

帖子

3997

积分

4K家园VIP

Rank: 9Rank: 9Rank: 9

积分
3997
发表于 2022-8-13 13:06:32 来自手机 | 显示全部楼层
元芳你怎么看?
回复 支持 反对

使用道具 举报

1

主题

1281

帖子

3861

积分

4K家园VIP

Rank: 9Rank: 9Rank: 9

积分
3861
发表于 2022-8-13 18:24:23 | 显示全部楼层
纯粹路过,没任何兴趣,仅仅是看在老用户份上回复一下
回复 支持 反对

使用道具 举报

0

主题

8668

帖子

2万

积分

4K家园VIP

Rank: 9Rank: 9Rank: 9

积分
20210
发表于 2022-8-14 22:28:41 | 显示全部楼层
太好啦&萬分感謝版主的無私發佈分享%
回复 支持 反对

使用道具 举报

51

主题

1420

帖子

4092

积分

4K家园VIP

Rank: 9Rank: 9Rank: 9

积分
4092
发表于 2022-8-16 08:01:15 | 显示全部楼层
占位编辑
回复 支持 反对

使用道具 举报

2

主题

1364

帖子

4108

积分

4K家园VIP

Rank: 9Rank: 9Rank: 9

积分
4108
发表于 2022-8-16 15:22:14 | 显示全部楼层
嘘,低调。
回复 支持 反对

使用道具 举报

1

主题

1321

帖子

3979

积分

4K家园VIP

Rank: 9Rank: 9Rank: 9

积分
3979
发表于 2022-8-19 03:01:59 来自手机 | 显示全部楼层
非常好,顶一下
回复 支持 反对

使用道具 举报

您需要登录后才可以回帖 登录 | 立即注册

本版积分规则

精彩图文
Archiver|手机版|TAG|Sitemap|新帖|专题|联系我们:邮箱: 4kjia.com@gmail.com   

4k家园   ©2019