[4K电影] 刀锋剑客 / Paws of Fury:The Legend of Hank (1994) 4K高清版本下载

[复制链接]

2327

主题

2476

帖子

1万

积分

超级版主

Rank: 8Rank: 8

积分
17940
 楼主| 发表于 2022-8-16 17:35:38 | 显示全部楼层 |阅读模式
本帖最后由 最爱4K哟 于 2022-8-16 17:36 编辑

QQ图片20220816172802_副本.png

◎译  名 刀锋剑客/Blazing Warrior/Blazing Samurai
◎片  名 Paws of Fury: The Legend of Hank
◎年  代 2022
◎产  地 英国/中国大陆/加拿大/美国
◎类  别 喜剧/动作/动画
◎语  言 英语
◎上映日期 2022-07-15(美国)
◎IMDb评分 5.6/10 from 2228 users 更新时间 : 2022-08-13
◎IMDb链接 https://www.imdb.com/title/tt4428398/
◎豆瓣评分 0/10 from 0 users
◎豆瓣链接 https://movie.douban.com/subject/26657516/
◎导  演 克里斯·贝利 Chris Bailey / 马克·科伊西尔 Mark Koetsier / 罗伯·明可夫 Rob Minkoff
◎编  剧 爱德·斯通 Ed Stone
       奈特·霍珀 Nate Hopper
       梅尔·布鲁克斯 Mel Brooks
       诺曼·斯坦伯格 Norman Steinberg
       安德鲁·伯格曼 Andrew Bergman
       理查德·普赖尔 Richard Pryor
       阿伦·埃格 Alan Uger
◎主  演  迈克尔·塞拉 Michael Cera
      塞缪尔·杰克逊 Samuel L. Jackson
      瑞奇·热维斯 Ricky Gervais
      凯莉·库伊奥卡 Kylie Kuioka
      梅尔·布鲁克斯 Mel Brooks
      武井乔治 George Takei
      加布里埃尔·伊格莱西亚斯 Gabriel Iglesias
      阿西夫·曼德维 Aasif Mandvi
      杰曼·翰苏 Djimon Hounsou
      杨紫琼 Michelle Yeoh
      凯西·史 Cathy Shim
      史蒂夫·阿波斯托利纳 Steve Apostolina
      柯克·贝利 Kirk Baily
      史蒂夫·布卢姆 Steve Blum
      兰贾尼·布罗 Ranjani Brow
      大卫·陈 David Chen
      马特·科博伊 Matt Corboy
      杰森·格里菲斯 Jason Griffith
      布里奇特·霍夫曼 Bridget Hoffman
      里夫·霍顿 Rif Hutton
      莱克斯·朗 Lex Lang
      汤姆·麦格拉思 Tom McGrath
      斯科特·门维尔 Scott Menville
      大卫·米驰 David Michie
      罗伯·明可夫 Rob Minkoff
      伊迪·米尔曼 Edie Mirman
      米歇尔·拉夫 Michelle Ruff
      凯莉·斯泰堡丝 Kelly Stables
      柯克·维斯 Kirk Wise
      马修·沃尔夫 Matthew Wolf


◎简  介


  一只运气不佳的猎犬汉克(迈克尔·塞拉饰)发现自己身处一个全是猫所在的小镇,而这里恰恰需要一个英雄来保护它们。因为一个无情的恶棍誓要把它们的村庄从地图上抹去。汉克必须扮演城镇武士的角色,与小镇居民们一起拯救世界

Video
ID : 1
Format : HEVC
Format/Info : High Efficiency Video Coding
Format profile : Main 10@L5@High
HDR format : SMPTE ST 2086, HDR10 compatible
Codec ID : V_MPEGH/ISO/HEVC
Duration : 1 h 37 min
Bit rate : 23.1 Mb/s
Width : 3 840 pixels
Height : 1 608 pixels
Display aspect ratio : 2.40:1
Frame rate mode : Constant
Frame rate : 23.976 FPS
Color space : YUV
Chroma subsampling : 4:2:0 (Type 2)
Bit depth : 10 bits
Bits/(Pixel*Frame) : 0.156
Stream size : 15.8 GiB (97%)
Default : Yes
Forced : No
Color range : Limited
Color primaries : BT.2020
Transfer characteristics : PQ
Matrix coefficients : BT.2020 non-constant
Mastering display color primaries : Display P3
Mastering display luminance : min: 0.0050 cd/m2, max: 1000 cd/m2
Maximum Content Light Level : 2404 cd/m2
Maximum Frame-Average Light Level : 988 cd/m2

Audio
ID : 2
Format : E-AC-3 JOC
Format/Info : Enhanced AC-3 with Joint Object Coding
Commercial name : Dolby Digital Plus with Dolby Atmos
Codec ID : A_EAC3
Duration : 1 h 37 min
Bit rate mode : Constant
Bit rate : 768 kb/s
Channel(s) : 6 channels
Channel layout : L R C LFE Ls Rs
Sampling rate : 48.0 kHz
Frame rate : 31.250 FPS (1536 SPF)
Compression mode : Lossy
Stream size : 538 MiB (3%)
Language : English
Service kind : Complete Main
Default : Yes
Forced : No
Complexity index : 16
Number of dynamic objects : 15
Bed channel count : 1 channel
Bed channel configuration : LFE

Text #1
ID : 3
Format : UTF-8
Codec ID : S_TEXT/UTF8
Codec ID/Info : UTF-8 Plain Text
Duration : 1 h 36 min
Bit rate : 58 b/s
Frame rate : 0.236 FPS
Count of elements : 1363
Stream size : 41.4 KiB (0%)
Language : English
Default : Yes
Forced : No

Text #2
ID : 4
Format : UTF-8
Codec ID : S_TEXT/UTF8
Codec ID/Info : UTF-8 Plain Text
Duration : 1 h 37 min
Bit rate : 65 b/s
Frame rate : 0.280 FPS
Count of elements : 1634
Stream size : 46.5 KiB (0%)
Title : SDH
Language : English
Default : No
Forced : No

资源速度为零或资源敏感被和谐时,推荐使用qBittorrent等下载软件,有条件的推荐115更好的下载软件!

下载地址:


游客,如果您要查看本帖隐藏内容请回复

游客,如果您要查看本帖隐藏内容请回复

游客,如果您要查看本帖隐藏内容请回复




上一篇:深渊 [法版] / The Abyss (1989) 4K高清版本下载
下一篇:锋利的棍子 / Sharp Stick (2022) 4K高清版本下载
回复

使用道具 举报

0

主题

1349

帖子

4075

积分

4K家园VIP

Rank: 9Rank: 9Rank: 9

积分
4075
发表于 2022-8-16 17:35:42 | 显示全部楼层
高手云集 果断围观
回复 支持 反对

使用道具 举报

54

主题

1567

帖子

4489

积分

4K家园VIP

Rank: 9Rank: 9Rank: 9

积分
4489
发表于 2022-8-16 21:21:09 来自手机 | 显示全部楼层
多发些资源啊
回复 支持 反对

使用道具 举报

1

主题

1172

帖子

3536

积分

4K家园VIP

Rank: 9Rank: 9Rank: 9

积分
3536
发表于 2022-8-16 22:27:49 来自手机 | 显示全部楼层
路过 帮顶 嘿嘿
回复 支持 反对

使用道具 举报

0

主题

1370

帖子

4124

积分

4K家园VIP

Rank: 9Rank: 9Rank: 9

积分
4124
发表于 2022-8-17 03:14:37 | 显示全部楼层
嘘,低调。
回复 支持 反对

使用道具 举报

2

主题

1745

帖子

4869

积分

4K家园VIP

Rank: 9Rank: 9Rank: 9

积分
4869
发表于 2022-8-17 06:52:54 | 显示全部楼层
报告!别开枪,我就是路过来看看的。。。
回复 支持 反对

使用道具 举报

0

主题

4

帖子

781

积分

4K家园VIP

Rank: 9Rank: 9Rank: 9

积分
781
发表于 2022-8-20 15:14:22 | 显示全部楼层
给个字幕吧,网上的字幕全都被屏蔽了啊
回复 支持 反对

使用道具 举报

您需要登录后才可以回帖 登录 | 立即注册

本版积分规则

精彩图文
Archiver|手机版|TAG|Sitemap|新帖|专题|联系我们:邮箱: 4kjia.com@gmail.com   

4k家园   ©2019