[4K美女视频] 韩国比基尼健美比赛现场实拍108[2160P/MP4/197MB]

[复制链接]

1068

主题

1207

帖子

7551

积分

超级版主

Rank: 8Rank: 8

积分
7551
 楼主| 发表于 2019-6-11 21:58:31 | 显示全部楼层 |阅读模式
本帖最后由 叽里呱啦 于 2019-6-11 21:58 编辑

韩国比基尼健美比赛现场实拍108.mp4_20190611_215647.636.jpg 韩国比基尼健美比赛现场实拍108.mp4_20190611_213353.636.jpg 韩国比基尼健美比赛现场实拍108.mp4_20190611_213510.028.jpg 韩国比基尼健美比赛现场实拍108.mp4_20190611_213415.509.jpg

General
Complete name                  :4K视频\韩国比基尼健美比赛现场实拍108.mp4
Format                         : MPEG-4
Format profile                 : Base Media
Codec ID                       : isom (isom/iso2/avc1/mp41)
File size                      : 197 MiB
Duration                       : 2 min 18 s
Overall bit rate               : 12.0 Mb/s
Writing application            : Lavf58.12.100

Video
ID                             : 1
Format                         : AVC
Format/Info                    : Advanced Video Codec
Format profile                 : [email protected]
Format settings                : CABAC / 4 Ref Frames
Format settings, CABAC         : Yes
Format settings, ReFrames      : 4 frames
Codec ID                       : avc1
Codec ID/Info                  : Advanced Video Coding
Duration                       : 2 min 18 s
Bit rate                       : 12.0 Mb/s
Width                          : 3 840 pixels
Height                         : 2 160 pixels
Display aspect ratio           : 16:9
Frame rate mode                : Constant
Frame rate                     : 29.000 FPS
Color space                    : YUV
Chroma subsampling             : 4:2:0
Bit depth                      : 8 bits
Scan type                      : Progressive
Bits/(Pixel*Frame)             : 0.050
Stream size                    : 195 MiB (99%)
Writing library                : x264 core 148
Encoding settings              : cabac=1 / ref=3 / deblock=1:0:0 / analyse=0x3:0x113 / me=hex / subme=7 / psy=1 / psy_rd=1.00:0.00 / mixed_ref=1 / me_range=16 / chroma_me=1 / trellis=1 / 8x8dct=1 / cqm=0 / deadzone=21,11 / fast_pskip=1 / chroma_qp_offset=-2 / threads=6 / lookahead_threads=1 / sliced_threads=0 / nr=0 / decimate=1 / interlaced=0 / bluray_compat=0 / constrained_intra=0 / bframes=3 / b_pyramid=2 / b_adapt=1 / b_bias=0 / direct=1 / weightb=1 / open_gop=0 / weightp=2 / keyint=250 / keyint_min=25 / scenecut=40 / intra_refresh=0 / rc_lookahead=40 / rc=abr / mbtree=1 / bitrate=12000 / ratetol=1.0 / qcomp=0.60 / qpmin=0 / qpmax=69 / qpstep=4 / ip_ratio=1.40 / aq=1:1.00
Language                       : English
Codec configuration box        : avcC

Audio
ID                             : 2
Format                         : AAC LC
Format/Info                    : Advanced Audio Codec Low Complexity
Codec ID                       : mp4a-40-2
Duration                       : 2 min 18 s
Duration_LastFrame             : -19 ms
Bit rate mode                  : Constant
Bit rate                       : 129 kb/s
Channel(s)                     : 2 channels
Channel layout                 : L R
Sampling rate                  : 44.1 kHz
Frame rate                     : 43.066 FPS (1024 SPF)
Compression mode               : Lossy
Stream size                    : 2.12 MiB (1%)
Language                       : English
Default                        : Yes
Alternate group                : 1




网盘下载失效不补:链接: https://pan.baidu.com/s/1oDr3DInE10h0miwgjs_j2A
****此区域为收费内容****    需支付 15 金币后可查看立即购买




.

上一篇:2019美女模特韩国车展14[2160P/MP4/235MB]
下一篇:Lady內衣走秀现场性感美模6 [2160P/MP4/165MB]
回复

使用道具 举报

0

主题

996

帖子

2822

积分

4K家园VIP

Rank: 9Rank: 9Rank: 9

积分
2822
发表于 2019-6-11 21:58:36 | 显示全部楼层
我是个凑数的。。。
回复 支持 反对

使用道具 举报

0

主题

2

帖子

28

积分

新手上路

Rank: 1

积分
28
发表于 2019-6-12 00:07:15 | 显示全部楼层
我就看看不说话
回复 支持 反对

使用道具 举报

0

主题

772

帖子

2286

积分

4K家园VIP

Rank: 9Rank: 9Rank: 9

积分
2286
发表于 2019-6-12 04:23:46 | 显示全部楼层
向楼主学习
回复 支持 反对

使用道具 举报

0

主题

911

帖子

2579

积分

4K家园VIP

Rank: 9Rank: 9Rank: 9

积分
2579
发表于 2019-6-12 19:41:53 | 显示全部楼层
占坑编辑ing
回复 支持 反对

使用道具 举报

38

主题

1090

帖子

3028

积分

4K家园VIP

Rank: 9Rank: 9Rank: 9

积分
3028
发表于 2019-6-12 20:19:16 | 显示全部楼层
嘘,低调。
回复 支持 反对

使用道具 举报

0

主题

970

帖子

2696

积分

4K家园VIP

Rank: 9Rank: 9Rank: 9

积分
2696
发表于 2019-6-12 22:40:32 | 显示全部楼层
呵呵,低调,低调!
回复 支持 反对

使用道具 举报

您需要登录后才可以回帖 登录 | 立即注册

本版积分规则

精彩图文
关闭

站长推荐上一条 /1 下一条

4k家园   ©2019