[4K电影] 偷蒙拐骗 / Bullet Proof (2022) 4K高清版本下载

[复制链接]

2327

主题

2476

帖子

1万

积分

超级版主

Rank: 8Rank: 8

积分
17940
 楼主| 发表于 2022-8-19 18:41:42 | 显示全部楼层 |阅读模式
偷蒙拐骗.png

◎标  题 偷蒙拐骗
◎译  名 Death Pursuit
◎片  名 Bullet Proof
◎年  代 2022
◎产  地 加拿大
◎类  别 动作 / 惊悚
◎语  言 英语
◎IMDb评分 6.0/10 from 1107 users Updated : 2022-08-19
◎IMDb链接 https://www.imdb.com/title/tt10198564/
◎豆瓣评分 0/10 from 0 users
◎豆瓣链接 https://movie.douban.com/subject/35712147/
◎导  演 詹姆斯·克莱顿 James D. Clayton
◎编  剧 丹尼·麦克 Danny Mac
◎演  员 维尼·琼斯 Vinnie Jones
       格伦·恩尼斯 Glenn Ennis
                   丽娜·勒康普特 Lina Lecompte
                   詹姆斯·克莱顿 James Clayton
                   菲利普·格兰杰 Philip Granger
                   洛里·特里洛 Lori Triolo
                   詹维尔·卡塔巴瓦 Janvier Katabarwa
                   肖·马德森 Shaw Madson
                   库珀·比波特 Cooper Bibaud
                   丹尼·麦克 Danny Mac
                   迈克尔·米顿 Michael Mitton
                   马修·格雷厄姆 Matthew Graham
                   托马斯·波特 Thomas Potter
                   布莱恩·安德森 Blaine Anderson
                   维斯纳·恩尼斯 Vesna Ennis
                   杰森·温厄姆 Jason Wingham
                   肖恩·肯尼迪 Sean Kennedy
                   谢恩·莱顿 Shane Leydon


◎简  介

  一个小偷从暴虐黑帮老大邓波儿的贩毒窝点偷了数百万现金后,在他逃跑的车里发现了一个偷渡者:邓波儿怀孕的妻子米娅。邓波儿不顾一切地要回他的钱和他未出生的儿子,派出一队杀手和赏金猎人把米娅和小偷带回来。速度、机智和瞄得准给了他们短暂的优势,但他们的运气能维持多久呢?
Video
ID : 1
Format : HEVC
Format/Info : High Efficiency Video Coding
Format profile : Main 10@L5@High
Codec ID : V_MPEGH/ISO/HEVC
Duration : 1 h 31 min
Bit rate : 11.8 Mb/s
Width : 3 832 pixels
Height : 1 912 pixels
Display aspect ratio : 2.004
Frame rate mode : Constant
Frame rate : 23.976 FPS
Color space : YUV
Chroma subsampling : 4:2:0
Bit depth : 10 bits
Bits/(Pixel*Frame) : 0.067
Stream size : 7.55 GiB (97%)
Default : Yes
Forced : No
Color range : Limited
Color primaries : BT.709
Transfer characteristics : BT.709
Matrix coefficients : BT.709

Audio
ID : 2
Format : AC-3
Format/Info : Audio Coding 3
Commercial name : Dolby Digital
Codec ID : A_AC3
Duration : 1 h 31 min
Bit rate mode : Constant
Bit rate : 384 kb/s
Channel(s) : 6 channels
Channel layout : L R C LFE Ls Rs
Sampling rate : 48.0 kHz
Frame rate : 31.250 FPS (1536 SPF)
Compression mode : Lossy
Stream size : 251 MiB (3%)
Language : English
Service kind : Complete Main
Default : Yes
Forced : No

Text
ID : 3
Format : UTF-8
Codec ID : S_TEXT/UTF8
Codec ID/Info : UTF-8 Plain Text
Duration : 1 h 16 min
Bit rate : 33 b/s
Frame rate : 0.137 FPS
Count of elements : 629
Stream size : 18.7 KiB (0%)
Language : English
Default : Yes
Forced : No

资源速度为零或资源敏感被和谐时,推荐使用qBittorrent等下载软件,有条件的推荐115更好的下载软件!

下载地址:

游客,如果您要查看本帖隐藏内容请回复






上一篇:孤儿怨:首杀 / Orphan: First Kill (2022) 4K高清版本下载
下一篇:无瑕的房间 / The Immaculate Room (2022) 4K高清版本下载
回复

使用道具 举报

3

主题

1755

帖子

4805

积分

4K家园VIP

Rank: 9Rank: 9Rank: 9

积分
4805
发表于 2022-8-19 18:41:46 | 显示全部楼层
4K应该不错,我也下个看看
回复 支持 反对

使用道具 举报

0

主题

2

帖子

9

积分

新手上路

Rank: 1

积分
9
发表于 2022-8-19 21:54:35 | 显示全部楼层
支持一个。下载看看~~
回复 支持 反对

使用道具 举报

52

主题

1490

帖子

4300

积分

4K家园VIP

Rank: 9Rank: 9Rank: 9

积分
4300
发表于 2022-8-21 00:10:49 | 显示全部楼层
一直在看
回复 支持 反对

使用道具 举报

5

主题

1389

帖子

4009

积分

4K家园VIP

Rank: 9Rank: 9Rank: 9

积分
4009
发表于 2022-8-21 02:43:36 来自手机 | 显示全部楼层
介是神马?!!
回复 支持 反对

使用道具 举报

49

主题

1555

帖子

4497

积分

4K家园VIP

Rank: 9Rank: 9Rank: 9

积分
4497
发表于 2022-8-21 17:36:07 | 显示全部楼层
高手云集 果断围观
回复 支持 反对

使用道具 举报

2

主题

1414

帖子

4094

积分

4K家园VIP

Rank: 9Rank: 9Rank: 9

积分
4094
发表于 2022-8-26 04:55:13 | 显示全部楼层
我擦!我要沙发!
回复 支持 反对

使用道具 举报

0

主题

8

帖子

63

积分

4K家园VIP

Rank: 9Rank: 9Rank: 9

积分
63
发表于 2022-8-27 11:17:13 | 显示全部楼层
好像以前也有过这么一个名字的影片
回复 支持 反对

使用道具 举报

0

主题

55

帖子

780

积分

新手上路

Rank: 1

积分
780
发表于 2022-8-31 06:03:52 | 显示全部楼层
看禁闻http://v.ht/tttd 点击访问
回复

使用道具 举报

您需要登录后才可以回帖 登录 | 立即注册

本版积分规则

精彩图文
Archiver|手机版|TAG|Sitemap|新帖|专题|联系我们:邮箱: 4kjia.com@gmail.com   

4k家园   ©2019