[4K电影] 无瑕的房间 / The Immaculate Room (2022) 4K高清版本下载

[复制链接]

2327

主题

2476

帖子

1万

积分

超级版主

Rank: 8Rank: 8

积分
17940
 楼主| 发表于 2022-8-19 19:06:13 | 显示全部楼层 |阅读模式
QQ图片20220819185645_副本.png

◎标  题 无瑕的房间
◎片  名 The Immaculate Room
◎年  代 2022
◎产  地 美国
◎类  别 惊悚
◎语  言 英语
◎上映日期 2022-08-19(美国)
◎IMDb评分 5.3/10 from 73 users 更新 : 2022-08-19
◎IMDb链接 https://www.imdb.com/title/tt13698942/
◎豆瓣评分 0/10 from 0 users
◎豆瓣链接 https://movie.douban.com/subject/35289783/
◎片  长 92分钟
◎导  演 穆昆达·迈克尔·德维尔 Mukunda Michael Dewil
◎编  剧 穆昆达·迈克尔·德维尔 Mukunda Michael Dewil
◎演  员 埃米尔·赫斯基 Emile Hirsch
       凯特·波茨沃斯 Kate Bosworth
       阿什丽·格林尼 Ashley Greene
       M·埃梅特·沃尔什 M. Emmet Walsh
                   亚历克斯·斯甘巴蒂 Alex Sgambati
                   蒂法妮·史密斯 Tiffany Smith
                   吉安娜·威奇洛Gianna Wichelow


◎简  介


  埃米尔·赫斯基(《烽火芳菲》《荒野生存》)、凯特·波茨沃斯(《超人归来》《依然爱丽丝》)、阿什丽·格林尼(《暮光之城》系列)、M·埃梅特·沃尔什(《利刃出鞘》《神父有难》)将主演心理惊悚片《无瑕的房间》(The Immaculate Room),目前正在拍摄中。
Mukunda Michael Dewil(《19车》)自编自导,讲述一对看似完美的夫妇参加了一项心理实验,如果他们能在完全纯白的房间里待50天,将获得500万美元的奖励。然而这个房间并不像看起来那样无害,隐藏的过去和个人的心魔将揭示可耻的事实,使他们可能无法生存。

Video
ID : 1
Format : HEVC
Format/Info : High Efficiency Video Coding
Format profile : Main 10@L5@High
Codec ID : V_MPEGH/ISO/HEVC
Duration : 1 h 32 min
Bit rate : 11.9 Mb/s
Width : 3 836 pixels
Height : 1 600 pixels
Display aspect ratio : 2.40:1
Original display aspect ratio : 2.40:1
Frame rate mode : Constant
Frame rate : 23.976 FPS
Color space : YUV
Chroma subsampling : 4:2:0
Bit depth : 10 bits
Bits/(Pixel*Frame) : 0.081
Stream size : 7.66 GiB (97%)
Language : English
Default : Yes
Forced : No
Color range : Limited
Color primaries : BT.709
Transfer characteristics : BT.709
Matrix coefficients : BT.709

Audio
ID : 2
Format : AC-3
Format/Info : Audio Coding 3
Commercial name : Dolby Digital
Codec ID : A_AC3
Duration : 1 h 32 min
Bit rate mode : Constant
Bit rate : 384 kb/s
Channel(s) : 6 channels
Channel layout : L R C LFE Ls Rs
Sampling rate : 48.0 kHz
Frame rate : 31.250 FPS (1536 SPF)
Compression mode : Lossy
Stream size : 253 MiB (3%)
Language : English
Service kind : Complete Main
Default : Yes
Forced : No

Text #1
ID : 3
Format : UTF-8
Codec ID : S_TEXT/UTF8
Codec ID/Info : UTF-8 Plain Text
Duration : 1 h 31 min
Bit rate : 52 b/s
Frame rate : 0.232 FPS
Count of elements : 1266
Stream size : 34.9 KiB (0%)
Title : SDH
Language : English
Default : No
Forced : No

Text #2
ID : 4
Format : UTF-8
Codec ID : S_TEXT/UTF8
Codec ID/Info : UTF-8 Plain Text
Duration : 1 h 31 min
Bit rate : 48 b/s
Frame rate : 0.216 FPS
Count of elements : 1178
Stream size : 32.4 KiB (0%)
Language : English
Default : No
Forced : No

Menu
00:00:00.000 : Chapter 01
00:06:50.994 : Chapter 02
00:11:47.540 : Chapter 03
00:18:31.778 : Chapter 04
00:26:07.734 : Chapter 05
00:34:12.886 : Chapter 06
00:42:22.917 : Chapter 07
00:49:13.203 : Chapter 08
00:55:59.776 : Chapter 09
01:03:04.743 : Chapter 10
01:11:24.200 : Chapter 11
01:21:56.624 : Chapter 12
01:28:04.701 : Chapter 13


资源速度为零或资源敏感被和谐时,推荐使用qBittorrent等下载软件,有条件的推荐115更好的下载软件!

下载地址:


游客,如果您要查看本帖隐藏内容请回复





上一篇:偷蒙拐骗 / Bullet Proof (2022) 4K高清版本下载
下一篇:德罗弗斯的妻子 (2021) 4K高清版本下载
回复

使用道具 举报

49

主题

1490

帖子

4272

积分

4K家园VIP

Rank: 9Rank: 9Rank: 9

积分
4272
发表于 2022-8-19 19:06:17 | 显示全部楼层
感谢楼主发帖,前排顶起
回复 支持 反对

使用道具 举报

0

主题

475

帖子

2895

积分

注册会员

Rank: 2

积分
2895
发表于 2022-8-20 15:22:00 | 显示全部楼层
感谢楼主发帖
回复 支持 反对

使用道具 举报

2

主题

1168

帖子

3524

积分

4K家园VIP

Rank: 9Rank: 9Rank: 9

积分
3524
发表于 2022-8-20 23:42:52 来自手机 | 显示全部楼层
楼下的接上
回复 支持 反对

使用道具 举报

5

主题

1689

帖子

4645

积分

4K家园VIP

Rank: 9Rank: 9Rank: 9

积分
4645
发表于 2022-8-25 10:44:27 来自手机 | 显示全部楼层
无论是不是沙发都得回复下
回复 支持 反对

使用道具 举报

50

主题

1500

帖子

4272

积分

4K家园VIP

Rank: 9Rank: 9Rank: 9

积分
4272
发表于 2022-8-25 22:49:35 | 显示全部楼层
看着好像不错
回复 支持 反对

使用道具 举报

0

主题

1

帖子

6

积分

新手上路

Rank: 1

积分
6
发表于 2022-8-26 14:05:44 | 显示全部楼层
小学楼主的分享
回复 支持 反对

使用道具 举报

2

主题

1412

帖子

4258

积分

4K家园VIP

Rank: 9Rank: 9Rank: 9

积分
4258
发表于 2022-8-30 03:40:22 | 显示全部楼层
纯粹路过,没任何兴趣,仅仅是看在老用户份上回复一下
回复 支持 反对

使用道具 举报

您需要登录后才可以回帖 登录 | 立即注册

本版积分规则

精彩图文
Archiver|手机版|TAG|Sitemap|新帖|专题|联系我们:邮箱: 4kjia.com@gmail.com   

4k家园   ©2019