[4K美女视频] 2019 JKF黄金娱乐城西门町比基尼游行合影 [2160P/MP4/170MB]

[复制链接]

1220

主题

1366

帖子

9327

积分

超级版主

Rank: 8Rank: 8

积分
9327
 楼主| 发表于 2019-6-27 11:03:52 | 显示全部楼层 |阅读模式

2019 JKF黄金娱乐城西门町比基尼游行合影.mp4_20190625_210137.711.jpg 2019 JKF黄金娱乐城西门町比基尼游行合影.mp4_20190625_210201.825.jpg 2019 JKF黄金娱乐城西门町比基尼游行合影.mp4_20190625_210207.128.jpg 2019 JKF黄金娱乐城西门町比基尼游行合影.mp4_20190625_210218.907.jpg

General
Complete name                  :4K视频\2019 JKF黄金娱乐城西门町比基尼游行合影.mp4
Format                         : MPEG-4
Format profile                 : Base Media
Codec ID                       : isom (isom/iso2/avc1/mp41)
File size                      : 171 MiB
Duration                       : 1 min 29 s
Overall bit rate               : 16.1 Mb/s
Writing application            : Lavf58.12.100

Video
ID                             : 1
Format                         : AVC
Format/Info                    : Advanced Video Codec
Format profile                 : High@L5.1
Format settings                : CABAC / 4 Ref Frames
Format settings, CABAC         : Yes
Format settings, Reference fra : 4 frames
Codec ID                       : avc1
Codec ID/Info                  : Advanced Video Coding
Duration                       : 1 min 29 s
Bit rate                       : 16.0 Mb/s
Width                          : 3 836 pixels
Height                         : 1 928 pixels
Display aspect ratio           : 1.990
Frame rate mode                : Constant
Frame rate                     : 29.000 FPS
Color space                    : YUV
Chroma subsampling             : 4:2:0
Bit depth                      : 8 bits
Scan type                      : Progressive
Bits/(Pixel*Frame)             : 0.075
Stream size                    : 169 MiB (99%)
Writing library                : x264 core 148
Encoding settings              : cabac=1 / ref=3 / deblock=1:0:0 / analyse=0x3:0x113 / me=hex / subme=7 / psy=1 / psy_rd=1.00:0.00 / mixed_ref=1 / me_range=16 / chroma_me=1 / trellis=1 / 8x8dct=1 / cqm=0 / deadzone=21,11 / fast_pskip=1 / chroma_qp_offset=-2 / threads=6 / lookahead_threads=1 / sliced_threads=0 / nr=0 / decimate=1 / interlaced=0 / bluray_compat=0 / constrained_intra=0 / bframes=3 / b_pyramid=2 / b_adapt=1 / b_bias=0 / direct=1 / weightb=1 / open_gop=0 / weightp=2 / keyint=250 / keyint_min=25 / scenecut=40 / intra_refresh=0 / rc_lookahead=40 / rc=abr / mbtree=1 / bitrate=16000 / ratetol=1.0 / qcomp=0.60 / qpmin=0 / qpmax=69 / qpstep=4 / ip_ratio=1.40 / aq=1:1.00
Language                       : English
Codec configuration box        : avcC

Audio
ID                             : 2
Format                         : AAC LC
Format/Info                    : Advanced Audio Codec Low Complexity
Codec ID                       : mp4a-40-2
Duration                       : 1 min 29 s
Bit rate mode                  : Constant
Bit rate                       : 129 kb/s
Channel(s)                     : 2 channels
Channel layout                 : L R
Sampling rate                  : 44.1 kHz
Frame rate                     : 43.066 FPS (1024 SPF)
Compression mode               : Lossy
Stream size                    : 1.37 MiB (1%)
Language                       : English
Default                        : Yes
Alternate group                : 1



网盘下载失效不补:链接: https://pan.baidu.com/s/1Y83St35fJeElaKUHlKZSDA
****此区域为收费内容****    需支付 15 金币后可查看立即购买


s_18027172_1436852645569_c55.gif

上一篇:韩国比基尼健美比赛现场实拍122 [2160P/MP4/287MB]
下一篇:2018比基尼秀第十位选手参赛表演者赵智妍[2160P/MP4/365MB]
回复

使用道具 举报

0

主题

1262

帖子

3390

积分

4K家园VIP

Rank: 9Rank: 9Rank: 9

积分
3390
发表于 2019-6-27 11:03:58 | 显示全部楼层
感谢推荐,确实不错
回复 支持 反对

使用道具 举报

0

主题

42

帖子

603

积分

新手上路

Rank: 1

积分
603
发表于 2019-6-27 13:13:06 | 显示全部楼层
感谢推荐,确实不错
回复 支持 反对

使用道具 举报

0

主题

694

帖子

3794

积分

中级会员

Rank: 4

积分
3794
发表于 2019-6-27 14:56:17 | 显示全部楼层

感谢推荐,确实不错
回复 支持 反对

使用道具 举报

44

主题

1086

帖子

3102

积分

4K家园VIP

Rank: 9Rank: 9Rank: 9

积分
3102
发表于 2019-6-27 17:14:33 | 显示全部楼层
元芳你怎么看?
回复 支持 反对

使用道具 举报

1

主题

449

帖子

3566

积分

4K家园VIP

Rank: 9Rank: 9Rank: 9

积分
3566
QQ
发表于 2019-6-27 20:50:11 | 显示全部楼层
期待很久了,终于等到了!!
回复 支持 反对

使用道具 举报

1

主题

1022

帖子

2872

积分

4K家园VIP

Rank: 9Rank: 9Rank: 9

积分
2872
发表于 2019-6-28 08:44:02 | 显示全部楼层
呵呵,低调,低调!
回复 支持 反对

使用道具 举报

55

主题

1102

帖子

3160

积分

4K家园VIP

Rank: 9Rank: 9Rank: 9

积分
3160
发表于 2019-6-28 08:51:13 来自手机 | 显示全部楼层
元芳你怎么看?
回复 支持 反对

使用道具 举报

0

主题

942

帖子

2840

积分

4K家园VIP

Rank: 9Rank: 9Rank: 9

积分
2840
发表于 2019-6-29 01:08:29 | 显示全部楼层
顶起顶起顶起
回复 支持 反对

使用道具 举报

0

主题

8235

帖子

9498

积分

金牌会员

Rank: 6Rank: 6

积分
9498
发表于 2019-9-29 12:39:23 | 显示全部楼层
楼主,我太崇拜你了!我想我是一天也不能离开4K家园。
回复 支持 反对

使用道具 举报

您需要登录后才可以回帖 登录 | 立即注册

本版积分规则

精彩图文
关闭

站长推荐上一条 /1 下一条

Archiver|手机版|TAG|Sitemap|新帖|专题|联系我们:邮箱: 4kjia.com@gmail.com   

4k家园   ©2019