[4K电影] 金属霸主 / Metal Lords (2022) 4K高清版本下载

[复制链接]

2327

主题

2476

帖子

1万

积分

超级版主

Rank: 8Rank: 8

积分
17940
 楼主| 发表于 2022-8-22 20:22:57 | 显示全部楼层 |阅读模式
QQ图片20220822195832_副本.png

◎译  名 重金属天团(港/台) / 金属贵族 / 金属上帝
◎片  名 Metal Lords
◎年  代 2022
◎产  地 美国
◎类  别 喜剧/音乐
◎语  言 英语
◎上映日期 2022-04-08(美国网络)
◎IMDb评分  6.7/10 from 23549 users 更新 : 2022-08-22
◎IMDb链接  https://www.imdb.com/title/tt12141112/
◎豆瓣评分 7.1/10 from 3857 users 更新 : 2022-08-22
◎豆瓣链接 https://movie.douban.com/subject/35200310/
◎片  长 98分钟
◎导  演 彼得·苏列特 Peter Sollett
◎编  剧 D·B·威斯 D.B. Weiss
◎主  演 杰登·马泰尔 Jaeden Martell
       艾西斯·海恩斯沃斯 Isis Hainsworth
       阿德里安·格林斯密斯 Adrian Greensmith
       乔·曼根尼罗 Joe Manganiello
       布伦特·吉尔曼 Brett Gelman
       苏芙·布莱德肖 Sufe Bradshaw
       米歇尔·毛 Michelle Mao
       约瑟夫·贝尔托特 Joseph Bertót
       凯蒂·麦克凯布 Katie McCabe
       泰迪·范·依 Teddy Van Ee
       凯尔·斯托尔茨 Kyle Stoltz
                   特洛伊·奥尔克 Troy Oelke
                   凯蒂·奥格雷迪 Katie O'Grady
                   诺亚·乌雷亚 Noah Urrea
                   A、 布赖恩·丹尼尔斯 A. Brian Daniels
                   Parker Hall Parker Hall
                   阿内萨·费舍尔 Analesa Fisher
                   迈克·哈里斯 Mike D Harris

◎简  介


  两名少年在高中组了一个金属乐队,然而学校里只有他们俩喜欢金属乐。他们找不到贝斯手,只得找来一名拉大提琴的女生做队友。三人必须齐心协力,才能在“乐队大战”中杀出重围。

Video
ID : 1
Format : HEVC
Format/Info : High Efficiency Video Coding
Format profile : Main [email protected]@Main
HDR format : Dolby Vision, Version 1.0, dvhe.08.06, BL+RPU, HDR10 compatible / SMPTE ST 2086, HDR10 compatible
Codec ID : V_MPEGH/ISO/HEVC
Duration : 1 h 36 min
Bit rate : 15.6 Mb/s
Width : 3 840 pixels
Height : 2 160 pixels
Display aspect ratio : 16:9
Frame rate mode : Constant
Frame rate : 24.000 FPS
Color space : YUV
Chroma subsampling : 4:2:0 (Type 2)
Bit depth : 10 bits
Bits/(Pixel*Frame) : 0.078
Stream size : 10.6 GiB (85%)
Language : English
Default : Yes
Forced : No
Color range : Limited
Color primaries : BT.2020
Transfer characteristics : PQ
Matrix coefficients : BT.2020 non-constant
Mastering display color primaries : Display P3
Mastering display luminance : min: 0.0001 cd/m2, max: 1000 cd/m2
Maximum Content Light Level : 10000 cd/m2
Maximum Frame-Average Light Level : 202 cd/m2

Audio #1
ID : 2
Format : E-AC-3
Format/Info : Enhanced AC-3
Commercial name : Dolby Digital Plus
Codec ID : A_EAC3
Duration : 1 h 38 min
Bit rate mode : Constant
Bit rate : 640 kb/s
Channel(s) : 6 channels
Channel layout : L R C LFE Ls Rs
Sampling rate : 48.0 kHz
Frame rate : 31.250 FPS (1536 SPF)
Compression mode : Lossy
Stream size : 451 MiB (4%)
Title : E-AC3
Language : Italian
Service kind : Complete Main
Default : Yes
Forced : Yes

Audio #2
ID : 3
Format : AC-3
Format/Info : Audio Coding 3
Commercial name : Dolby Digital
Codec ID : A_AC3
Duration : 1 h 38 min
Bit rate mode : Constant
Bit rate : 640 kb/s
Channel(s) : 6 channels
Channel layout : L R C LFE Ls Rs
Sampling rate : 48.0 kHz
Frame rate : 31.250 FPS (1536 SPF)
Compression mode : Lossy
Stream size : 451 MiB (4%)
Title : AC3
Language : Italian
Service kind : Complete Main
Default : No
Forced : No

Audio #3
ID : 4
Format : E-AC-3 JOC
Format/Info : Enhanced AC-3 with Joint Object Coding
Commercial name : Dolby Digital Plus with Dolby Atmos
Codec ID : A_EAC3
Duration : 1 h 38 min
Bit rate mode : Constant
Bit rate : 768 kb/s
Channel(s) : 6 channels
Channel layout : L R C LFE Ls Rs
Sampling rate : 48.0 kHz
Frame rate : 31.250 FPS (1536 SPF)
Compression mode : Lossy
Stream size : 542 MiB (4%)
Title : E-AC3
Language : English
Service kind : Complete Main
Default : No
Forced : No
Complexity index : 16
Number of dynamic objects : 15
Bed channel count : 1 channel
Bed channel configuration : LFE

Audio #4
ID : 5
Format : AC-3
Format/Info : Audio Coding 3
Commercial name : Dolby Digital
Codec ID : A_AC3
Duration : 1 h 38 min
Bit rate mode : Constant
Bit rate : 640 kb/s
Channel(s) : 6 channels
Channel layout : L R C LFE Ls Rs
Sampling rate : 48.0 kHz
Frame rate : 31.250 FPS (1536 SPF)
Compression mode : Lossy
Stream size : 451 MiB (4%)
Title : AC3
Language : English
Service kind : Complete Main
Default : No
Forced : No

Text #1
ID : 6
Format : UTF-8
Codec ID : S_TEXT/UTF8
Codec ID/Info : UTF-8 Plain Text
Duration : 1 h 36 min
Bit rate : 1 b/s
Count of elements : 44
Stream size : 1.03 KiB (0%)
Title : Forced
Language : Italian
Default : No
Forced : Yes

Text #2
ID : 7
Format : UTF-8
Codec ID : S_TEXT/UTF8
Codec ID/Info : UTF-8 Plain Text
Duration : 1 h 36 min
Bit rate : 41 b/s
Count of elements : 1091
Stream size : 29.1 KiB (0%)
Title : Regular
Language : Italian
Default : No
Forced : No

Text #3
ID : 8
Format : UTF-8
Codec ID : S_TEXT/UTF8
Codec ID/Info : UTF-8 Plain Text
Duration : 1 h 36 min
Bit rate : 67 b/s
Count of elements : 1572
Stream size : 47.6 KiB (0%)
Title : Non Udenti
Language : English
Default : No
Forced : No


资源速度为零或资源敏感被和谐时,推荐使用qBittorrent等下载软件,有条件的推荐115更好的下载软件!

下载地址:


****此区域为收费内容****    需支付 9 金币后可查看立即购买






上一篇:求冰河世纪系列可用资源
下一篇:壮志凌云2:独行侠 [简繁中字] (2022) 4K高清版本下载
回复

使用道具 举报

55

主题

1617

帖子

4667

积分

4K家园VIP

Rank: 9Rank: 9Rank: 9

积分
4667
发表于 2022-8-22 20:23:07 | 显示全部楼层
支持,赞一个
回复 支持 反对

使用道具 举报

0

主题

8663

帖子

2万

积分

4K家园VIP

Rank: 9Rank: 9Rank: 9

积分
20189
发表于 2022-8-22 20:37:12 | 显示全部楼层
太好啦&萬分感謝版主的無私發佈分享%
回复 支持 反对

使用道具 举报

1

主题

1428

帖子

4100

积分

4K家园VIP

Rank: 9Rank: 9Rank: 9

积分
4100
发表于 2022-8-22 21:09:48 | 显示全部楼层
感谢分享
回复 支持 反对

使用道具 举报

1

主题

1389

帖子

4187

积分

4K家园VIP

Rank: 9Rank: 9Rank: 9

积分
4187
发表于 2022-8-22 21:39:23 | 显示全部楼层
垃圾
回复 支持 反对

使用道具 举报

1

主题

1370

帖子

4138

积分

4K家园VIP

Rank: 9Rank: 9Rank: 9

积分
4138
发表于 2022-8-22 21:42:41 | 显示全部楼层
占坑编辑ing
回复 支持 反对

使用道具 举报

195

主题

1604

帖子

4414

积分

4K家园VIP

Rank: 9Rank: 9Rank: 9

积分
4414
发表于 2022-8-22 22:19:27 | 显示全部楼层
报告!别开枪,我就是路过来看看的。。。
回复 支持 反对

使用道具 举报

您需要登录后才可以回帖 登录 | 立即注册

本版积分规则

精彩图文
Archiver|手机版|TAG|Sitemap|新帖|专题|联系我们:邮箱: 4kjia.com@gmail.com   

4k家园   ©2019