[4K电影] 复活节 / Easter Sunday (2022) 4K高清版本下载

[复制链接]

2333

主题

2482

帖子

1万

积分

超级版主

Rank: 8Rank: 8

积分
17979
 楼主| 发表于 2022-8-23 19:16:37 | 显示全部楼层 |阅读模式
QQ图片20220823191028_副本.png

◎标  题 复活节
◎片  名 Easter Sunday
◎年  代 2022
◎产  地 美国
◎类  别 喜剧
◎语  言 英语
◎上映日期 2022-08-05(美国)
◎IMDb评分 5.6/10 from 900 users Updated : 2022-08-23
◎IMDb链接 https://www.imdb.com/title/tt11952606/
◎豆瓣评分 0/10 from 0 users
◎豆瓣链接 https://movie.douban.com/subject/34970332/
◎片  长 96分钟
◎导  演 杰伊·钱德拉萨卡 Jay Chandrasekhar
◎编  剧 肯·程 Ken Cheng / 凯特·安吉洛 Kate Angelo
◎演  员 乔·科伊 Jo Koy
       莉迪亚·加斯顿 Lydia Gaston
       布兰登·沃戴尔 Brandon Wardell
       伊娃·诺布勒札达 Eva Noblezada
       卡莉·波普 Carly Pope
       杰伊·钱德拉萨卡 Jay Chandrasekhar
       蒂亚·卡雷尔 Tia Carrere
       美乐蒂·布提乌 Melody Butiu
       乔伊·吉拉 Joey Guila
       罗德尼·图 Rodney To
       伊莲娜·郁安科 Elena Juatco
       尤金·科德罗 Eugene Cordero
       卢·戴蒙德·菲利普斯 Lou Diamond Phillips
       阿西夫·阿里 Asif Ali
       欧阳万成 Jimmy O. Yang
       伊妮德·雷伊·亚当斯 Enid-Raye Adams
       泽维尔·德古斯曼 Xavier de Guzman
       布拉德·格伦伯格 Brad Grunberg
       蒂凡尼·哈迪斯 Tiffany Haddish
       迈克尔·琼森 Michael Jonsson
       迈克尔·韦弗 Michael Weaver
       达斯汀·伊巴拉 Dustin Ybarra


◎简  介


  在这封写给菲律宾裔美国人社区的情书中,一个男人回家庆祝复活节,他的家人狂欢、争吵、吃喝、欢笑,充满爱。

Video
ID : 1
Format : HEVC
Format/Info : High Efficiency Video Coding
Format profile : Main 10@L5@High
HDR format : Dolby Vision, Version 1.0, dvhe.05.06, BL+RPU
Codec ID : V_MPEGH/ISO/HEVC
Duration : 1 h 36 min
Bit rate : 24.5 Mb/s
Width : 3 832 pixels
Height : 2 072 pixels
Display aspect ratio : 1.85:1
Frame rate mode : Constant
Frame rate : 23.976 (24000/1001) FPS
Color space : YUV
Chroma subsampling : 4:2:0
Bit depth : 10 bits
Bits/(Pixel*Frame) : 0.129
Stream size : 16.5 GiB (97%)
Language : English
Default : Yes
Forced : No

Audio
ID : 2
Format : E-AC-3 JOC
Format/Info : Enhanced AC-3 with Joint Object Coding
Commercial name : Dolby Digital Plus with Dolby Atmos
Codec ID : A_EAC3
Duration : 1 h 36 min
Bit rate mode : Constant
Bit rate : 768 kb/s
Channel(s) : 6 channels
Channel layout : L R C LFE Ls Rs
Sampling rate : 48.0 kHz
Frame rate : 31.250 FPS (1536 SPF)
Compression mode : Lossy
Stream size : 531 MiB (3%)
Language : English
Service kind : Complete Main
Default : Yes
Forced : No
Complexity index : 16
Number of dynamic objects : 15
Bed channel count : 1 channel
Bed channel configuration : LFE

Text #1
ID : 3
Format : UTF-8
Codec ID : S_TEXT/UTF8
Codec ID/Info : UTF-8 Plain Text
Duration : 1 h 36 min
Bit rate : 121 b/s
Frame rate : 0.464 FPS
Count of elements : 2681
Stream size : 85.8 KiB (0%)
Title : SDH
Language : English
Default : No
Forced : No

Text #2
ID : 4
Format : UTF-8
Codec ID : S_TEXT/UTF8
Codec ID/Info : UTF-8 Plain Text
Duration : 1 h 35 min
Bit rate : 112 b/s
Frame rate : 0.439 FPS
Count of elements : 2512
Stream size : 78.4 KiB (0%)
Language : English
Default : No
Forced : No

Text #3
ID : 5
Format : UTF-8
Codec ID : S_TEXT/UTF8
Codec ID/Info : UTF-8 Plain Text
Duration : 1 h 35 min
Bit rate : 85 b/s
Frame rate : 0.316 FPS
Count of elements : 1810
Stream size : 59.4 KiB (0%)
Title : Latin American
Language : Spanish
Default : No
Forced : No

Text #4
ID : 6
Format : UTF-8
Codec ID : S_TEXT/UTF8
Codec ID/Info : UTF-8 Plain Text
Duration : 1 h 30 min
Bit rate : 97 b/s
Frame rate : 0.303 FPS
Count of elements : 1642
Stream size : 64.2 KiB (0%)
Title : Canadian
Language : French
Default : No
Forced : No

Menu
00:00:00.000 : Chapter 01
00:04:06.913 : Chapter 02
00:09:11.676 : Chapter 03
00:14:40.255 : Chapter 04
00:19:30.045 : Chapter 05
00:22:59.838 : Chapter 06
00:28:44.557 : Chapter 07
00:32:30.742 : Chapter 08
00:38:39.986 : Chapter 09
00:43:33.988 : Chapter 10
00:50:13.930 : Chapter 11
00:54:02.909 : Chapter 12
01:01:17.761 : Chapter 13
01:05:55.038 : Chapter 14
01:09:41.723 : Chapter 15
01:14:36.518 : Chapter 16
01:17:23.309 : Chapter 17
01:25:16.950 : Chapter 18
01:29:05.303 : Chapter 19
01:30:54.871 : Chapter 20


资源速度为零或资源敏感被和谐时,推荐使用qBittorrent等下载软件,有条件的推荐115更好的下载软件!

下载地址:


游客,如果您要查看本帖隐藏内容请回复

游客,如果您要查看本帖隐藏内容请回复

游客,如果您要查看本帖隐藏内容请回复

游客,如果您要查看本帖隐藏内容请回复

游客,如果您要查看本帖隐藏内容请回复





上一篇:DC萌宠特遣队 / DC League of Super-Pets (2022) 4K高清版本下载
下一篇:圣诞夜惊魂 / The Nightmare Before Christmas (1993)4K高清版本下载
回复

使用道具 举报

59

主题

1573

帖子

4515

积分

4K家园VIP

Rank: 9Rank: 9Rank: 9

积分
4515
发表于 2022-8-23 19:16:43 | 显示全部楼层
前排,哇咔咔
回复 支持 反对

使用道具 举报

0

主题

8668

帖子

2万

积分

4K家园VIP

Rank: 9Rank: 9Rank: 9

积分
20210
发表于 2022-8-23 19:40:03 | 显示全部楼层
太好啦&萬分感謝版主的無私發佈分享%
回复 支持 反对

使用道具 举报

50

主题

1554

帖子

4498

积分

4K家园VIP

Rank: 9Rank: 9Rank: 9

积分
4498
发表于 2022-8-26 22:49:25 | 显示全部楼层
路过的帮顶
回复 支持 反对

使用道具 举报

1

主题

1368

帖子

4122

积分

4K家园VIP

Rank: 9Rank: 9Rank: 9

积分
4122
发表于 2022-8-28 17:07:49 | 显示全部楼层
4K电影下个试试
回复 支持 反对

使用道具 举报

1

主题

1327

帖子

3799

积分

4K家园VIP

Rank: 9Rank: 9Rank: 9

积分
3799
发表于 2022-9-11 19:14:36 | 显示全部楼层
看帖要回,回帖才健康,在踩踩,楼主辛苦了!
回复 支持 反对

使用道具 举报

3

主题

1792

帖子

4924

积分

中级会员

Rank: 4

积分
4924
发表于 2022-9-22 20:24:09 | 显示全部楼层
感谢分享
回复 支持 反对

使用道具 举报

您需要登录后才可以回帖 登录 | 立即注册

本版积分规则

精彩图文
Archiver|手机版|TAG|Sitemap|新帖|专题|联系我们:邮箱: 4kjia.com@gmail.com   

4k家园   ©2019