[4K电影] 神奇乐园历险记 [简繁中字] /Wonder.Park (2019) 4K高清版本下载

[复制链接]

2327

主题

2476

帖子

1万

积分

超级版主

Rank: 8Rank: 8

积分
17940
 楼主| 发表于 2022-8-26 20:05:00 | 显示全部楼层 |阅读模式
QQ图片20220826195521_副本.png

◎译  名 神奇乐园历险记 / 神奇梦乐园(港) / 奇幻游乐园(台) / 游乐园 / Amusement Park
◎片  名 Wonder Park
◎年  代 2019
◎产  地 美国 / 西班牙
◎类  别 喜剧 / 动画 / 奇幻 / 冒险
◎语  言 英语
◎上映日期 2019-04-19(中国大陆) / 2019-03-15(美国)
◎IMDb评分 5.8/10 from 11951 users 更新 : 2022-08-25
◎IMDb链接 https://www.imdb.com/title/tt6428676/
◎豆瓣评分 6.1/10 from 3667 users 更新 : 2022-08-25
◎豆瓣链接 https://movie.douban.com/subject/26662282/
◎片  长 86分钟
◎导  演 迪兰·布朗 Dylan Brown
◎编  剧 乔什·阿佩尔鲍姆 Josh Appelbaum / 安德烈·内梅克 André Nemec / 罗伯特·戈登 Robert Gordon
◎演  员 索菲亚·玛丽 Sofia Mali
       詹妮弗·加纳 Jennifer Garner
       肯·哈德森·坎贝尔 Ken Hudson Campbell
       基南·汤普森 Kenan Thompson
       米拉·库尼斯 Mila Kunis
       约翰·奥利弗 John Oliver
       郑肯 Ken Jeong
       诺尔贝特·里奥·布茨 Norbert Leo Butz
       马修·布罗德里克 Matthew Broderick
       凯特·麦克格雷格-斯图尔特 Kate McGregor-Stewart
       凯文·张伯伦 Kevin Chamberlin
       凯斯·索西 Kath Soucie
       杰弗里·塔伯 Jeffrey Tambor
       达兰·诺里斯 Daran Norris
       张琦 Qi Zhang
       史蒂文·普莱斯 Steven Price


◎简  介


  一位极富创造力的女孩小六月,偶然间发现了一座神奇的乐园。在乐园里,有着各式各样惊险刺激的游乐设施和形形色色的动物朋友。在这个奇幻的世界里,将会发生怎样意想不到的故事呢?

Video
ID : 1
Format : HEVC
Format/Info : High Efficiency Video Coding
Format profile : Main 10@L5@High
HDR format : Dolby Vision, Version 1.0, dvhe.05.06, BL+RPU
Codec ID : dvhe
Codec ID/Info : High Efficiency Video Coding with Dolby Vision
Duration : 1 h 25 min
Bit rate : 14.2 Mb/s
Width : 3 832 pixels
Height : 1 592 pixels
Display aspect ratio : 2.40:1
Frame rate mode : Constant
Frame rate : 23.976 (24000/1001) FPS
Color space : YUV
Chroma subsampling : 4:2:0
Bit depth : 10 bits
Bits/(Pixel*Frame) : 0.097
Stream size : 8.44 GiB (96%)
Default : Yes
Alternate group : 1
Encoded date : UTC 2022-08-26 09:48:59
Tagged date : UTC 2022-08-26 09:50:23
Codec configuration box : hvcC+dvcC

Audio
ID : 2
Format : AC-3
Format/Info : Audio Coding 3
Commercial name : Dolby Digital
Codec ID : ac-3
Duration : 1 h 25 min
Bit rate mode : Constant
Bit rate : 640 kb/s
Maximum bit rate : 676 kb/s
Channel(s) : 6 channels
Channel layout : L R C LFE Ls Rs
Sampling rate : 48.0 kHz
Frame rate : 31.250 FPS (1536 SPF)
Compression mode : Lossy
Stream size : 390 MiB (4%)
Title : English
Language : English
Service kind : Complete Main
Default : Yes
Alternate group : 1
Tagged date : UTC 2022-08-26 09:50:23

Text #1
ID : 3
Format : Timed Text
Codec ID : tx3g
Duration : 1 h 17 min
Bit rate mode : Variable
Bit rate : 70 b/s
Frame rate : 0.445 FPS
Stream size : 39.9 KiB (0%)
Title : English
Language : English
Forced : No
Encoded date : UTC 2022-08-26 09:50:21
Tagged date : UTC 2022-08-26 09:50:23

Text #2
ID : 4
Format : Timed Text
Codec ID : tx3g
Duration : 1 h 19 min
Bit rate mode : Variable
Bit rate : 87 b/s
Frame rate : 0.623 FPS
Stream size : 50.4 KiB (0%)
Title : English
Language : English
Forced : No
Encoded date : UTC 2022-08-26 09:50:21
Tagged date : UTC 2022-08-26 09:50:23

Text #3
ID : 5
Format : Timed Text
Codec ID : tx3g
Duration : 1 h 17 min
Bit rate mode : Variable
Bit rate : 96 b/s
Frame rate : 0.473 FPS
Stream size : 54.9 KiB (0%)
Title : Arabic
Language : Arabic
Forced : No
Encoded date : UTC 2022-08-26 09:50:21
Tagged date : UTC 2022-08-26 09:50:23

Text #4
ID : 6
Format : Timed Text
Codec ID : tx3g
Duration : 1 h 25 min
Bit rate mode : Variable
Bit rate : 61 b/s
Frame rate : 0.434 FPS
Stream size : 37.8 KiB (0%)
Title : 中文(简体)
Language : 中文
Forced : No
Encoded date : UTC 2022-08-26 09:50:21
Tagged date : UTC 2022-08-26 09:50:23

Text #5
ID : 7
Format : Timed Text
Codec ID : tx3g
Duration : 1 h 17 min
Bit rate mode : Variable
Bit rate : 61 b/s
Frame rate : 0.477 FPS
Stream size : 34.6 KiB (0%)
Title : 中文(繁体)
Language : 中文
Forced : No
Encoded date : UTC 2022-08-26 09:50:21
Tagged date : UTC 2022-08-26 09:50:23

Text #6
ID : 8
Format : Timed Text
Codec ID : tx3g
Duration : 1 h 25 min
Bit rate mode : Variable
Bit rate : 63 b/s
Frame rate : 0.411 FPS
Stream size : 39.5 KiB (0%)
Title : Czech
Language : Czech
Forced : No
Encoded date : UTC 2022-08-26 09:50:21
Tagged date : UTC 2022-08-26 09:50:23

Text #7
ID : 9
Format : Timed Text
Codec ID : tx3g
Duration : 1 h 25 min
Bit rate mode : Variable
Bit rate : 64 b/s
Frame rate : 0.411 FPS
Stream size : 39.8 KiB (0%)
Title : Danish
Language : Danish
Forced : No
Encoded date : UTC 2022-08-26 09:50:21
Tagged date : UTC 2022-08-26 09:50:23

Text #8
ID : 10
Format : Timed Text
Codec ID : tx3g
Duration : 1 h 17 min
Bit rate mode : Variable
Bit rate : 65 b/s
Frame rate : 0.448 FPS
Stream size : 37.1 KiB (0%)
Title : Finnish
Language : Finnish
Forced : No
Encoded date : UTC 2022-08-26 09:50:21
Tagged date : UTC 2022-08-26 09:50:23

Text #9
ID : 11
Format : Timed Text
Codec ID : tx3g
Duration : 1 h 25 min
Bit rate mode : Variable
Bit rate : 59 b/s
Frame rate : 0.444 FPS
Stream size : 37.1 KiB (0%)
Title : French
Language : French
Forced : No
Encoded date : UTC 2022-08-26 09:50:21
Tagged date : UTC 2022-08-26 09:50:23

Text #10
ID : 12
Format : Timed Text
Codec ID : tx3g
Duration : 1 h 17 min
Bit rate mode : Variable
Bit rate : 93 b/s
Frame rate : 0.451 FPS
Stream size : 53.0 KiB (0%)
Title : Hebrew
Language : Hebrew
Forced : No
Encoded date : UTC 2022-08-26 09:50:21
Tagged date : UTC 2022-08-26 09:50:23

Text #11
ID : 13
Format : Timed Text
Codec ID : tx3g
Duration : 1 h 17 min
Bit rate mode : Variable
Bit rate : 165 b/s
Frame rate : 0.451 FPS
Stream size : 93.8 KiB (0%)
Title : Hindi
Language : Hindi
Forced : No
Encoded date : UTC 2022-08-26 09:50:21
Tagged date : UTC 2022-08-26 09:50:23

Text #12
ID : 14
Format : Timed Text
Codec ID : tx3g
Duration : 1 h 17 min
Bit rate mode : Variable
Bit rate : 71 b/s
Frame rate : 0.449 FPS
Stream size : 40.5 KiB (0%)
Title : Hungarian
Language : Hungarian
Forced : No
Encoded date : UTC 2022-08-26 09:50:22
Tagged date : UTC 2022-08-26 09:50:23

Text #13
ID : 15
Format : Timed Text
Codec ID : tx3g
Duration : 1 h 25 min
Bit rate mode : Variable
Bit rate : 63 b/s
Frame rate : 0.428 FPS
Stream size : 39.0 KiB (0%)
Title : Indonesian
Language : Indonesian
Forced : No
Encoded date : UTC 2022-08-26 09:50:22
Tagged date : UTC 2022-08-26 09:50:23

Text #14
ID : 16
Format : Timed Text
Codec ID : tx3g
Duration : 1 h 25 min
Bit rate mode : Variable
Bit rate : 57 b/s
Frame rate : 0.443 FPS
Stream size : 35.6 KiB (0%)
Title : Japanese
Language : Japanese
Forced : No
Encoded date : UTC 2022-08-26 09:50:22
Tagged date : UTC 2022-08-26 09:50:23

Text #15
ID : 17
Format : Timed Text
Codec ID : tx3g
Duration : 1 h 25 min
Bit rate mode : Variable
Bit rate : 67 b/s
Frame rate : 0.413 FPS
Stream size : 42.1 KiB (0%)
Title : Korean
Language : Korean
Forced : No
Encoded date : UTC 2022-08-26 09:50:22
Tagged date : UTC 2022-08-26 09:50:23

Text #16
ID : 18
Format : Timed Text
Codec ID : tx3g
Duration : 1 h 17 min
Bit rate mode : Variable
Bit rate : 70 b/s
Frame rate : 0.449 FPS
Stream size : 39.8 KiB (0%)
Title : Norwegian
Language : Norwegian
Forced : No
Encoded date : UTC 2022-08-26 09:50:22
Tagged date : UTC 2022-08-26 09:50:23

Text #17
ID : 19
Format : Timed Text
Codec ID : tx3g
Duration : 1 h 17 min
Bit rate mode : Variable
Bit rate : 67 b/s
Frame rate : 0.447 FPS
Stream size : 38.0 KiB (0%)
Title : Polish
Language : Polish
Forced : No
Encoded date : UTC 2022-08-26 09:50:22
Tagged date : UTC 2022-08-26 09:50:23

Text #18
ID : 20
Format : Timed Text
Codec ID : tx3g
Duration : 1 h 17 min
Bit rate mode : Variable
Bit rate : 73 b/s
Frame rate : 0.449 FPS
Stream size : 41.9 KiB (0%)
Title : Portuguese
Language : Portuguese
Forced : No
Encoded date : UTC 2022-08-26 09:50:22
Tagged date : UTC 2022-08-26 09:50:23

Text #19
ID : 21
Format : Timed Text
Codec ID : tx3g
Duration : 1 h 25 min
Bit rate mode : Variable
Bit rate : 70 b/s
Frame rate : 0.466 FPS
Stream size : 43.5 KiB (0%)
Title : Portuguese-BR
Language : Portuguese
Forced : No
Encoded date : UTC 2022-08-26 09:50:22
Tagged date : UTC 2022-08-26 09:50:23

Text #20
ID : 22
Format : Timed Text
Codec ID : tx3g
Duration : 1 h 17 min
Bit rate mode : Variable
Bit rate : 107 b/s
Frame rate : 0.474 FPS
Stream size : 61.2 KiB (0%)
Title : Russian
Language : Russian
Forced : No
Encoded date : UTC 2022-08-26 09:50:22
Tagged date : UTC 2022-08-26 09:50:23

Text #21
ID : 23
Format : Timed Text
Codec ID : tx3g
Duration : 1 h 25 min
Bit rate mode : Variable
Bit rate : 66 b/s
Frame rate : 0.420 FPS
Stream size : 41.3 KiB (0%)
Title : Spanish
Language : Spanish
Forced : No
Encoded date : UTC 2022-08-26 09:50:22
Tagged date : UTC 2022-08-26 09:50:23

Text #22
ID : 24
Format : Timed Text
Codec ID : tx3g
Duration : 1 h 25 min
Bit rate mode : Variable
Bit rate : 69 b/s
Frame rate : 0.430 FPS
Stream size : 42.8 KiB (0%)
Title : Spanish-EU
Language : Spanish
Forced : No
Encoded date : UTC 2022-08-26 09:50:22
Tagged date : UTC 2022-08-26 09:50:23

Text #23
ID : 25
Format : Timed Text
Codec ID : tx3g
Duration : 1 h 25 min
Bit rate mode : Variable
Bit rate : 61 b/s
Frame rate : 0.374 FPS
Stream size : 38.2 KiB (0%)
Title : Swedish
Language : Swedish
Forced : No
Encoded date : UTC 2022-08-26 09:50:22
Tagged date : UTC 2022-08-26 09:50:23

Text #24
ID : 26
Format : Timed Text
Codec ID : tx3g
Duration : 1 h 17 min
Bit rate mode : Variable
Bit rate : 191 b/s
Frame rate : 0.451 FPS
Stream size : 109 KiB (0%)
Title : Tamil
Language : Tamil
Forced : No
Encoded date : UTC 2022-08-26 09:50:22
Tagged date : UTC 2022-08-26 09:50:23

Text #25
ID : 27
Format : Timed Text
Codec ID : tx3g
Duration : 1 h 25 min
Bit rate mode : Variable
Bit rate : 159 b/s
Frame rate : 0.412 FPS
Stream size : 99.3 KiB (0%)
Title : Telugu
Language : Telugu
Forced : No
Encoded date : UTC 2022-08-26 09:50:22
Tagged date : UTC 2022-08-26 09:50:23

Text #26
ID : 28
Format : Timed Text
Codec ID : tx3g
Duration : 1 h 17 min
Bit rate mode : Variable
Bit rate : 147 b/s
Frame rate : 0.467 FPS
Stream size : 83.7 KiB (0%)
Title : Thai
Language : Thai
Forced : No
Encoded date : UTC 2022-08-26 09:50:23
Tagged date : UTC 2022-08-26 09:50:23

Text #27
ID : 29
Format : Timed Text
Codec ID : tx3g
Duration : 1 h 17 min
Bit rate mode : Variable
Bit rate : 71 b/s
Frame rate : 0.444 FPS
Stream size : 40.7 KiB (0%)
Title : Turkish
Language : Turkish
Forced : No
Encoded date : UTC 2022-08-26 09:50:23
Tagged date : UTC 2022-08-26 09:50:23

Text #28
ID : 30
Format : Timed Text
Codec ID : tx3g
Duration : 1 h 17 min
Bit rate mode : Variable
Bit rate : 90 b/s
Frame rate : 0.468 FPS
Stream size : 51.5 KiB (0%)
Title : Vietnamese
Language : Vietnamese
Forced : No
Encoded date : UTC 2022-08-26 09:50:23
Tagged date : UTC 2022-08-26 09:50:23


资源速度为零或资源敏感被和谐时,推荐使用qBittorrent等下载软件,有条件的推荐115更好的下载软件!

下载地址:


游客,如果您要查看本帖隐藏内容请回复

游客,如果您要查看本帖隐藏内容请回复

游客,如果您要查看本帖隐藏内容请回复





上一篇:撒玛利亚 [简繁中字] / Samaritan (2022) 4K高清版本下载
下一篇:小宝贝的故事 [简繁中字] (2022) 4K高清版本下载
回复

使用道具 举报

5

主题

1689

帖子

4645

积分

4K家园VIP

Rank: 9Rank: 9Rank: 9

积分
4645
发表于 2022-8-26 20:05:05 | 显示全部楼层
不错 支持一个了
回复 支持 反对

使用道具 举报

49

主题

1485

帖子

4281

积分

4K家园VIP

Rank: 9Rank: 9Rank: 9

积分
4281
发表于 2022-8-26 20:05:05 | 显示全部楼层
一直在看
回复 支持 反对

使用道具 举报

55

主题

1541

帖子

4455

积分

4K家园VIP

Rank: 9Rank: 9Rank: 9

积分
4455
发表于 2022-8-26 22:57:03 | 显示全部楼层
4K版的应该更清晰吧
回复 支持 反对

使用道具 举报

1

主题

1374

帖子

4136

积分

4K家园VIP

Rank: 9Rank: 9Rank: 9

积分
4136
发表于 2022-8-27 06:19:02 | 显示全部楼层
1v1飘过
回复 支持 反对

使用道具 举报

40

主题

1561

帖子

4473

积分

4K家园VIP

Rank: 9Rank: 9Rank: 9

积分
4473
发表于 2022-8-27 08:56:29 | 显示全部楼层
占位编辑
回复 支持 反对

使用道具 举报

0

主题

475

帖子

2895

积分

注册会员

Rank: 2

积分
2895
发表于 2022-8-29 11:23:15 | 显示全部楼层
谢谢楼主分享
回复 支持 反对

使用道具 举报

0

主题

55

帖子

780

积分

新手上路

Rank: 1

积分
780
发表于 2022-9-6 21:42:06 | 显示全部楼层
看禁闻http://v.ht/tttd 点击访问
回复

使用道具 举报

您需要登录后才可以回帖 登录 | 立即注册

本版积分规则

精彩图文
Archiver|手机版|TAG|Sitemap|新帖|专题|联系我们:邮箱: 4kjia.com@gmail.com   

4k家园   ©2019