[4K电影] 致命伴旅 / The Tourist (2010) 4K高清版本下载

[复制链接]

2333

主题

2482

帖子

1万

积分

超级版主

Rank: 8Rank: 8

积分
17979
 楼主| 发表于 2022-8-28 10:45:45 | 显示全部楼层 |阅读模式
QQ图片20220828103802_副本.png

◎标  题 致命伴旅
◎译  名 色遇(台) / 机密邂逅(港) / 游客 / 致命伴侣
◎片  名 The Tourist
◎年  代 2010
◎产  地 美国 / 法国 / 意大利
◎类  别 剧情 / 爱情 / 悬疑 / 犯罪
◎语  言 英语 / 法语 / 意大利语 / 俄语 / 西班牙语
◎上映日期 2011-02-13(中国大陆) / 2010-12-10(美国)
◎IMDb评分 6.0/10 from 242477 users 更新 : 2022-08-26
◎IMDb链接 https://www.imdb.com/title/tt1243957/
◎豆瓣评分 6.6/10 from 153328 users 更新 : 2022-08-26
◎豆瓣链接 https://movie.douban.com/subject/4190211/
◎片  长 105分钟
◎导  演 弗洛里安·亨克尔·冯·多纳斯马尔克 Florian Henckel von Donnersmarck
◎编  剧 朱利安·费罗斯 Julian Fellowes / 克里斯托弗·麦奎里 Christopher McQuarrie / 弗洛里安·亨克尔·冯·多纳斯马尔克 Florian Henckel von Donnersmarck / 热罗姆·萨尔 Jérôme Salle
◎演  员 约翰尼·德普 Johnny Depp
       安吉丽娜·朱莉 Angelina Jolie
       卢夫斯·塞维尔 Rufus Sewell
       保罗·贝坦尼 Paul Bettany
       提摩西·道尔顿 Timothy Dalton
       史蒂文·伯克夫 Steven Berkoff
       克里斯蒂安·德·西卡 Christian De Sica
       阿莱西奥·博尼 Alessio Boni
       丹尼尔·佩奇 Daniele Pecci
       乔万尼·圭代利 Giovanni Guidelli
       雷欧·波瓦 Raoul Bova
       伊多·戈德堡 Iddo Goldberg
       格威利姆·李 Gwilym Lee
       朱利安·鲍姆加特纳 Julien Baumgartner
       克莱门特·史鲍尼 Clément Sibony
       史蒂文·罗伯特森 Steven Robertson
       马克·鲁赫曼 Marc Ruchmann
       布鲁诺·沃尔科维奇 Bruno Wolkowitch
       弗朗索瓦·温琴泰利 François Vincentelli
       拉尔夫·莫勒 Ralf Moeller
       马斯·贝尔西托 Mas Belsito
       让-克劳德·阿德琳 Jean-Claude Adelin
       让-玛丽·拉穆尔 Jean-Marie Lamour
       詹姆斯·纽顿·霍华德 James Newton Howard
       约翰·希尔 John Seale


◎简  介


  美国游客Frank独身远赴欧洲一心治疗情伤,却在火车上邂逅了背景神秘的性感女子Elise,正当Frank陶醉在二人世界之际,危机却渐渐迫近,自巴黎开始被追踪监视,来到威尼斯更惹来各方人马追杀……随着Elise的真正身份揭开,Frank 才惊觉自己卷入了一场精心布局的危险游戏!

Video
ID : 1
Format : HEVC
Format/Info : High Efficiency Video Coding
Format profile : Main 10@L5@High
Codec ID : V_MPEGH/ISO/HEVC
Duration : 1 h 43 min
Bit rate : 24.1 Mb/s
Width : 3 840 pixels
Height : 2 160 pixels
Display aspect ratio : 16:9
Frame rate mode : Constant
Frame rate : 23.976 (24000/1001) FPS
Color space : YUV
Chroma subsampling : 4:2:0 (Type 2)
Bit depth : 10 bits
Bits/(Pixel*Frame) : 0.121
Stream size : 17.4 GiB (85%)
Language : English
Default : Yes
Forced : No
Color range : Limited
Color primaries : BT.709
Transfer characteristics : BT.709
Matrix coefficients : BT.709

Audio #1
ID : 2
Format : DTS XLL
Format/Info : Digital Theater Systems
Commercial name : DTS-HD Master Audio
Codec ID : A_DTS
Duration : 1 h 43 min
Bit rate mode : Variable
Bit rate : 3 703 kb/s
Channel(s) : 6 channels
Channel layout : C L R Ls Rs LFE
Sampling rate : 48.0 kHz
Frame rate : 93.750 FPS (512 SPF)
Bit depth : 24 bits
Compression mode : Lossless
Delay relative to video : 83 ms
Stream size : 2.68 GiB (13%)
Title : DTS-HD Master Audio / 3703 kbps / 5.1 / 48 kHz / 24-bit
Language : English
Default : Yes
Forced : No

Audio #2
ID : 3
Format : AC-3
Format/Info : Audio Coding 3
Commercial name : Dolby Digital
Codec ID : A_AC3
Duration : 1 h 43 min
Bit rate mode : Constant
Bit rate : 384 kb/s
Channel(s) : 6 channels
Channel layout : L R C LFE Ls Rs
Sampling rate : 48.0 kHz
Frame rate : 31.250 FPS (1536 SPF)
Compression mode : Lossy
Delay relative to video : 1 s 43 ms
Stream size : 284 MiB (1%)
Language : English
Service kind : Complete Main
Default : No
Forced : No

Audio #3
ID : 4
Format : AC-3
Format/Info : Audio Coding 3
Commercial name : Dolby Digital
Format settings : Dolby Surround
Codec ID : A_AC3
Duration : 1 h 43 min
Bit rate mode : Constant
Bit rate : 192 kb/s
Channel(s) : 2 channels
Channel layout : L R
Sampling rate : 48.0 kHz
Frame rate : 31.250 FPS (1536 SPF)
Compression mode : Lossy
Delay relative to video : 83 ms
Stream size : 142 MiB (1%)
Title : Commentary by director Florian Henckel von Donnersmarck
Language : English
Service kind : Complete Main
Default : No
Forced : No

Text #1
ID : 5
Format : UTF-8
Codec ID : S_TEXT/UTF8
Codec ID/Info : UTF-8 Plain Text
Duration : 1 h 26 min
Bit rate : 2 b/s
Frame rate : 0.013 FPS
Count of elements : 68
Stream size : 1.61 KiB (0%)
Title : Forced
Language : English
Default : Yes
Forced : Yes

Text #2
ID : 6
Format : UTF-8
Codec ID : S_TEXT/UTF8
Codec ID/Info : UTF-8 Plain Text
Duration : 1 h 35 min
Bit rate : 35 b/s
Frame rate : 0.148 FPS
Count of elements : 847
Stream size : 24.5 KiB (0%)
Language : English
Default : No
Forced : No

Text #3
ID : 7
Format : UTF-8
Codec ID : S_TEXT/UTF8
Codec ID/Info : UTF-8 Plain Text
Duration : 1 h 35 min
Bit rate : 38 b/s
Frame rate : 0.168 FPS
Count of elements : 963
Stream size : 27.1 KiB (0%)
Title : SDH
Language : English
Default : No
Forced : No

Text #4
ID : 8
Format : UTF-8
Codec ID : S_TEXT/UTF8
Codec ID/Info : UTF-8 Plain Text
Duration : 1 h 42 min
Bit rate : 92 b/s
Frame rate : 0.241 FPS
Count of elements : 1488
Stream size : 69.5 KiB (0%)
Title : Commentary by director Florian Henckel von Donnersmarck
Language : English
Default : No
Forced : No

Text #5
ID : 9
Format : UTF-8
Codec ID : S_TEXT/UTF8
Codec ID/Info : UTF-8 Plain Text
Duration : 1 h 35 min
Bit rate : 34 b/s
Frame rate : 0.134 FPS
Count of elements : 769
Stream size : 23.9 KiB (0%)
Language : Danish
Default : No
Forced : No

Text #6
ID : 10
Format : UTF-8
Codec ID : S_TEXT/UTF8
Codec ID/Info : UTF-8 Plain Text
Duration : 1 h 35 min
Bit rate : 54 b/s
Frame rate : 0.143 FPS
Count of elements : 824
Stream size : 38.1 KiB (0%)
Language : Greek
Default : No
Forced : No

Text #7
ID : 11
Format : UTF-8
Codec ID : S_TEXT/UTF8
Codec ID/Info : UTF-8 Plain Text
Duration : 1 h 35 min
Bit rate : 33 b/s
Frame rate : 0.156 FPS
Count of elements : 898
Stream size : 23.4 KiB (0%)
Language : Spanish
Default : No
Forced : No

Text #8
ID : 12
Format : UTF-8
Codec ID : S_TEXT/UTF8
Codec ID/Info : UTF-8 Plain Text
Duration : 1 h 36 min
Bit rate : 33 b/s
Frame rate : 0.143 FPS
Count of elements : 828
Stream size : 23.6 KiB (0%)
Title : Latin American
Language : Spanish
Default : No
Forced : No

Text #9
ID : 13
Format : UTF-8
Codec ID : S_TEXT/UTF8
Codec ID/Info : UTF-8 Plain Text
Duration : 1 h 35 min
Bit rate : 29 b/s
Frame rate : 0.133 FPS
Count of elements : 764
Stream size : 20.9 KiB (0%)
Language : Finnish
Default : No
Forced : No

Text #10
ID : 14
Format : UTF-8
Codec ID : S_TEXT/UTF8
Codec ID/Info : UTF-8 Plain Text
Duration : 1 h 35 min
Bit rate : 33 b/s
Frame rate : 0.131 FPS
Count of elements : 752
Stream size : 23.3 KiB (0%)
Language : Dutch
Default : No
Forced : No

Text #11
ID : 15
Format : UTF-8
Codec ID : S_TEXT/UTF8
Codec ID/Info : UTF-8 Plain Text
Duration : 1 h 35 min
Bit rate : 29 b/s
Frame rate : 0.133 FPS
Count of elements : 763
Stream size : 21.0 KiB (0%)
Language : Norwegian
Default : No
Forced : No

Text #12
ID : 16
Format : UTF-8
Codec ID : S_TEXT/UTF8
Codec ID/Info : UTF-8 Plain Text
Duration : 1 h 36 min
Bit rate : 36 b/s
Frame rate : 0.144 FPS
Count of elements : 836
Stream size : 26.1 KiB (0%)
Language : Portuguese
Default : No
Forced : No

Text #13
ID : 17
Format : UTF-8
Codec ID : S_TEXT/UTF8
Codec ID/Info : UTF-8 Plain Text
Duration : 1 h 35 min
Bit rate : 34 b/s
Frame rate : 0.117 FPS
Count of elements : 672
Stream size : 24.0 KiB (0%)
Language : Swedish
Default : No
Forced : No

Menu
00:00:00.000 : en:Chapter 01
00:08:05.000 : en:Chapter 02
00:11:30.000 : en:Chapter 03
00:17:07.000 : en:Chapter 04
00:25:05.000 : en:Chapter 05
00:30:25.000 : en:Chapter 06
00:34:10.000 : en:Chapter 07
00:40:57.000 : en:Chapter 08
00:49:26.000 : en:Chapter 09
00:55:19.000 : en:Chapter 10
01:00:52.000 : en:Chapter 11
01:06:20.000 : en:Chapter 12
01:12:48.000 : en:Chapter 13
01:17:36.000 : en:Chapter 14
01:24:35.000 : en:Chapter 15
01:30:11.000 : en:Chapter 16


资源速度为零或资源敏感被和谐时,推荐使用qBittorrent等下载软件,有条件的推荐115更好的下载软件!

下载地址:


游客,如果您要查看本帖隐藏内容请回复






上一篇:小宝贝的故事 [简繁中字] (2022) 4K高清版本下载
下一篇:夏洛特的网 [简繁中字] / Charlotte's Web (2006) 4K高清版本下载
回复

使用道具 举报

1

主题

1345

帖子

3857

积分

4K家园VIP

Rank: 9Rank: 9Rank: 9

积分
3857
发表于 2022-8-28 10:45:49 | 显示全部楼层
为毛老子总也抢不到沙发?!!
回复 支持 反对

使用道具 举报

0

主题

8668

帖子

2万

积分

4K家园VIP

Rank: 9Rank: 9Rank: 9

积分
20210
发表于 2022-8-28 10:48:24 | 显示全部楼层
太好啦&萬分感謝版主的無私發佈分享%
回复 支持 反对

使用道具 举报

39

主题

1539

帖子

4411

积分

4K家园VIP

Rank: 9Rank: 9Rank: 9

积分
4411
发表于 2022-8-28 10:51:44 | 显示全部楼层
嘘,低调。
回复 支持 反对

使用道具 举报

0

主题

29

帖子

226

积分

新手上路

Rank: 1

积分
226
发表于 2022-8-28 11:31:16 | 显示全部楼层
感謝版主的無私發佈
回复 支持 反对

使用道具 举报

0

主题

1733

帖子

4807

积分

4K家园VIP

Rank: 9Rank: 9Rank: 9

积分
4807
发表于 2022-8-28 11:44:42 | 显示全部楼层
边撸边过
回复 支持 反对

使用道具 举报

0

主题

291

帖子

1772

积分

4K家园VIP

Rank: 9Rank: 9Rank: 9

积分
1772
QQ
发表于 2022-8-28 18:42:26 | 显示全部楼层
楼主辛苦了,谢谢楼主,感谢楼主分享,楼主好人一生平安!!!
回复 支持 反对

使用道具 举报

2

主题

1629

帖子

4487

积分

4K家园VIP

Rank: 9Rank: 9Rank: 9

积分
4487
发表于 2022-8-28 21:00:12 | 显示全部楼层
广告位,,坐下看看
回复 支持 反对

使用道具 举报

3

主题

1423

帖子

4095

积分

4K家园VIP

Rank: 9Rank: 9Rank: 9

积分
4095
发表于 2022-8-28 22:01:09 | 显示全部楼层
看着好像不错
回复 支持 反对

使用道具 举报

0

主题

2

帖子

15

积分

新手上路

Rank: 1

积分
15
发表于 2022-8-28 23:48:37 | 显示全部楼层
感谢分享视频
回复 支持 反对

使用道具 举报

您需要登录后才可以回帖 登录 | 立即注册

本版积分规则

精彩图文
Archiver|手机版|TAG|Sitemap|新帖|专题|联系我们:邮箱: 4kjia.com@gmail.com   

4k家园   ©2019