[4K美女视频] 2019高尔夫秀韩国模特-01[2160/MP4/384MB]

[复制链接]

800

主题

883

帖子

5531

积分

超级版主

Rank: 8Rank: 8

积分
5531
 楼主| 发表于 2019-7-6 15:06:41 | 显示全部楼层 |阅读模式

2019高尔夫秀韩国模特-01.mp4_20190705_215139.293.jpg 2019高尔夫秀韩国模特-01.mp4_20190705_215207.183.jpg 2019高尔夫秀韩国模特-01.mp4_20190705_215215.173.jpg 2019高尔夫秀韩国模特-01.mp4_20190705_215228.496.jpg 2019高尔夫秀韩国模特-01.mp4.jpg

General
Complete name                  : 4K视频\2019高尔夫秀韩国模特-01.mp4
Format                         : MPEG-4
Format profile                 : Base Media
Codec ID                       : isom (isom/iso2/avc1/mp41)
File size                      : 385 MiB
Duration                       : 3 min 39 s
Overall bit rate               : 14.7 Mb/s
Writing application            : EX1.5.0(C1.0.9)

Video
ID                             : 1
Format                         : AVC
Format/Info                    : Advanced Video Codec
Format profile                 : [email protected]
Format settings                : CABAC / 3 Ref Frames
Format settings, CABAC         : Yes
Format settings, Reference fra : 3 frames
Format settings, GOP           : M=3, N=60
Codec ID                       : avc1
Codec ID/Info                  : Advanced Video Coding
Duration                       : 3 min 39 s
Bit rate                       : 14.5 Mb/s
Width                          : 2 160 pixels
Height                         : 3 840 pixels
Display aspect ratio           : 0.563
Frame rate mode                : Constant
Frame rate                     : 29.970 (29970/1000) FPS
Color space                    : YUV
Chroma subsampling             : 4:2:0
Bit depth                      : 8 bits
Scan type                      : Progressive
Bits/(Pixel*Frame)             : 0.058
Stream size                    : 380 MiB (99%)
Codec configuration box        : avcC

Audio
ID                             : 2
Format                         : AAC LC
Format/Info                    : Advanced Audio Codec Low Complexity
Codec ID                       : mp4a-40-2
Duration                       : 3 min 39 s
Duration_LastFrame             : -11 ms
Bit rate mode                  : Constant
Bit rate                       : 192 kb/s
Channel(s)                     : 2 channels
Channel layout                 : L R
Sampling rate                  : 44.1 kHz
Frame rate                     : 43.066 FPS (1024 SPF)
Compression mode               : Lossy
Stream size                    : 5.02 MiB (1%)
Default                        : Yes
Alternate group                : 1



网盘下载失效不补:链接: https://pan.baidu.com/s/1tMeghexEWSlAiyXdgfIVOg
****此区域为收费内容****    需支付 15 金币后可查看立即购买


1.gif




.

上一篇:国际游艇-竞技模特陈夏珍、韩敏英[2160/MP4/798MB]
下一篇:2019酒吧开张五大美女来捧场 [2160/MP4/215MB]
回复

使用道具 举报

45

主题

1037

帖子

2927

积分

4K家园VIP

Rank: 9Rank: 9Rank: 9

积分
2927
发表于 2019-7-6 15:06:48 | 显示全部楼层
我也是坐沙发的
回复 支持 反对

使用道具 举报

39

主题

1046

帖子

2958

积分

4K家园VIP

Rank: 9Rank: 9Rank: 9

积分
2958
发表于 2019-7-6 17:16:24 | 显示全部楼层
非常好,顶一下
回复 支持 反对

使用道具 举报

0

主题

314

帖子

2080

积分

4K家园VIP

Rank: 9Rank: 9Rank: 9

积分
2080
QQ
发表于 2019-7-6 20:34:13 | 显示全部楼层
下载收藏了!!
回复 支持 反对

使用道具 举报

0

主题

1156

帖子

3056

积分

4K家园VIP

Rank: 9Rank: 9Rank: 9

积分
3056
发表于 2019-7-7 00:30:35 | 显示全部楼层
这个资源我记得是一套的,楼主还有没有
回复 支持 反对

使用道具 举报

37

主题

1086

帖子

3048

积分

4K家园VIP

Rank: 9Rank: 9Rank: 9

积分
3048
发表于 2019-7-7 08:19:10 来自手机 | 显示全部楼层
打酱油的人拉,回复下赚取积分
回复 支持 反对

使用道具 举报

0

主题

1210

帖子

3256

积分

4K家园VIP

Rank: 9Rank: 9Rank: 9

积分
3256
发表于 2019-7-7 13:27:16 | 显示全部楼层
支持楼主,用户楼主,楼主英明呀!!!
回复 支持 反对

使用道具 举报

您需要登录后才可以回帖 登录 | 立即注册

本版积分规则

精彩图文
关闭

站长推荐上一条 /2 下一条

4k家园   ©2019