[4K测试视频] 2019 STL 泳裝商场走秀现场实拍 [2160/MP4/937MB]

[复制链接]

800

主题

883

帖子

5549

积分

超级版主

Rank: 8Rank: 8

积分
5549
 楼主| 发表于 2019-7-7 21:17:48 | 显示全部楼层 |阅读模式

2019 STL 泳裝商场走秀现场实拍.mp4_20190706_152530.894.jpg 2019 STL 泳裝商场走秀现场实拍.mp4_20190706_152540.382.jpg 2019 STL 泳裝商场走秀现场实拍.mp4_20190706_152817.214.jpg 2019 STL 泳裝商场走秀现场实拍.mp4_20190706_152904.871.jpg 2019 STL 泳裝商场走秀现场实拍.mp4.jpg

General
Complete name                  : 2019 STL 泳裝商场走秀现场实拍.mp4
Format                         : MPEG-4
Format profile                 : Base Media
Codec ID                       : isom (isom/iso2/avc1/mp41)
File size                      : 937 MiB
Duration                       : 8 min 8 s
Overall bit rate               : 16.1 Mb/s
Writing application            : Lavf58.12.100

Video
ID                             : 1
Format                         : AVC
Format/Info                    : Advanced Video Codec
Format profile                 : [email protected]
Format settings                : CABAC / 4 Ref Frames
Format settings, CABAC         : Yes
Format settings, Reference fra : 4 frames
Codec ID                       : avc1
Codec ID/Info                  : Advanced Video Coding
Duration                       : 8 min 8 s
Bit rate                       : 16.0 Mb/s
Width                          : 3 836 pixels
Height                         : 1 888 pixels
Display aspect ratio           : 2.032
Frame rate mode                : Constant
Frame rate                     : 29.000 FPS
Color space                    : YUV
Chroma subsampling             : 4:2:0
Bit depth                      : 8 bits
Scan type                      : Progressive
Bits/(Pixel*Frame)             : 0.076
Stream size                    : 929 MiB (99%)
Writing library                : x264 core 148
Encoding settings              : cabac=1 / ref=3 / deblock=1:0:0 / analyse=0x3:0x113 / me=hex / subme=7 / psy=1 / psy_rd=1.00:0.00 / mixed_ref=1 / me_range=16 / chroma_me=1 / trellis=1 / 8x8dct=1 / cqm=0 / deadzone=21,11 / fast_pskip=1 / chroma_qp_offset=-2 / threads=6 / lookahead_threads=1 / sliced_threads=0 / nr=0 / decimate=1 / interlaced=0 / bluray_compat=0 / constrained_intra=0 / bframes=3 / b_pyramid=2 / b_adapt=1 / b_bias=0 / direct=1 / weightb=1 / open_gop=0 / weightp=2 / keyint=250 / keyint_min=25 / scenecut=40 / intra_refresh=0 / rc_lookahead=40 / rc=abr / mbtree=1 / bitrate=16000 / ratetol=1.0 / qcomp=0.60 / qpmin=0 / qpmax=69 / qpstep=4 / ip_ratio=1.40 / aq=1:1.00
Language                       : English
Codec configuration box        : avcC

Audio
ID                             : 2
Format                         : AAC LC
Format/Info                    : Advanced Audio Codec Low Complexity
Codec ID                       : mp4a-40-2
Duration                       : 8 min 8 s
Duration_LastFrame             : -14 ms
Bit rate mode                  : Constant
Bit rate                       : 129 kb/s
Channel(s)                     : 2 channels
Channel layout                 : L R
Sampling rate                  : 44.1 kHz
Frame rate                     : 43.066 FPS (1024 SPF)
Compression mode               : Lossy
Stream size                    : 7.50 MiB (1%)
Language                       : English
Default                        : Yes
Alternate group                : 1



网盘下载失效不补:链接: https://pan.baidu.com/s/1m5YCROV5hK8iTNxMHAXINw
****此区域为收费内容****    需支付 15 金币后可查看立即购买

.




.

上一篇:2019酒吧开张五大美女来捧场 [2160/MP4/215MB]
下一篇:2019 韩国比基尼健美比赛现场实拍131 [2160/MP4/267MB]
回复

使用道具 举报

0

主题

719

帖子

2175

积分

4K家园VIP

Rank: 9Rank: 9Rank: 9

积分
2175
发表于 2019-7-7 21:17:54 | 显示全部楼层
看着好像不错
回复 支持 反对

使用道具 举报

0

主题

643

帖子

2745

积分

中级会员

Rank: 4

积分
2745
发表于 2019-7-8 00:49:15 | 显示全部楼层

4K家园赞一个!
回复 支持 反对

使用道具 举报

0

主题

930

帖子

2634

积分

4K家园VIP

Rank: 9Rank: 9Rank: 9

积分
2634
发表于 2019-7-8 06:24:09 | 显示全部楼层
小白一个 顶一下
回复 支持 反对

使用道具 举报

0

主题

9

帖子

37

积分

新手上路

Rank: 1

积分
37
发表于 2019-7-8 16:17:41 | 显示全部楼层
韩国的这么多模特走秀视频。
回复 支持 反对

使用道具 举报

0

主题

314

帖子

2080

积分

4K家园VIP

Rank: 9Rank: 9Rank: 9

积分
2080
QQ
发表于 2019-7-8 20:29:48 | 显示全部楼层
支持收藏了!!
回复 支持 反对

使用道具 举报

0

主题

910

帖子

2548

积分

4K家园VIP

Rank: 9Rank: 9Rank: 9

积分
2548
发表于 2019-7-9 09:27:31 | 显示全部楼层
我也是坐沙发的
回复 支持 反对

使用道具 举报

0

主题

996

帖子

2824

积分

4K家园VIP

Rank: 9Rank: 9Rank: 9

积分
2824
发表于 2019-7-10 00:48:42 | 显示全部楼层
楼下的接上
回复 支持 反对

使用道具 举报

43

主题

1063

帖子

3049

积分

4K家园VIP

Rank: 9Rank: 9Rank: 9

积分
3049
发表于 7 天前 | 显示全部楼层
占坑编辑ing
回复 支持 反对

使用道具 举报

您需要登录后才可以回帖 登录 | 立即注册

本版积分规则

精彩图文
关闭

站长推荐上一条 /2 下一条

4k家园   ©2019