[4K电影] 旋转人生 / Spin Me Round (2022) 4K高清版本下载

[复制链接]

2333

主题

2482

帖子

1万

积分

超级版主

Rank: 8Rank: 8

积分
17979
 楼主| 发表于 2022-8-29 10:38:13 | 显示全部楼层 |阅读模式
QQ图片20220829103123_副本.png

◎译  名 旋转人生/团团转
◎片  名 Spin Me Round
◎年  代 2022
◎产  地 美国
◎类  别 喜剧
◎上映日期 2022-03-12(西南偏南电影节)/2022-08-19(美国)
◎IMDb评分 5.1/10 from 1081 users 更新 : 2022-08-29
◎IMDb链接 https://www.imdb.com/title/tt14596320/
◎豆瓣评分 0/10 from 0 users
◎豆瓣链接 https://movie.douban.com/subject/35453489/
◎片  长 104分钟
◎导  演 杰夫·拜纳 Jeff Baena
◎编  剧 杰夫·拜纳 Jeff Baena / 爱丽森·布里 Alison Brie
◎主  演 爱丽森·布里 Alison Brie
       奥布瑞·普拉扎 Aubrey Plaza
       亚历桑德罗·尼沃拉 Alessandro Nivola
       莫莉·香侬 Molly Shannon
       里尔·莱尔·哈瓦瑞 Lil Rel Howery
       本·辛克莱尔 Ben Sinclair
       弗莱德·阿米森 Fred Armisen
       杰克·皮克金 Jake Picking
       蒂姆·海德克 Tim Heidecker



◎简  介


  该片讲述意大利连锁餐厅Tuscan Grove位于加州贝克斯菲尔德的加盟店经理艾梅柏(布里饰),赢得了一个前往该公司位于佛罗伦萨郊外的华丽的“研究所”的全额费用旅行的机会,同时还可以与连锁餐厅的老板(尼沃拉饰)见面。当艾梅柏与一群不相配的美国当地加盟店的经理们在一起时,这场旅行与自己想象中的浪漫之旅完全不一样。

Video
ID : 1
Format : HEVC
Format/Info : High Efficiency Video Coding
Format profile : Main 10@L5@High
HDR format : Dolby Vision, Version 1.0, dvhe.05.06, BL+RPU
Codec ID : V_MPEGH/ISO/HEVC
Duration : 1 h 44 min
Bit rate : 24.9 Mb/s
Width : 3 836 pixels
Height : 2 072 pixels
Display aspect ratio : 1.85:1
Frame rate mode : Constant
Frame rate : 23.976 (24000/1001) FPS
Color space : YUV
Chroma subsampling : 4:2:0
Bit depth : 10 bits
Bits/(Pixel*Frame) : 0.131
Stream size : 18.1 GiB (97%)
Language : English
Default : Yes
Forced : No

Audio
ID : 2
Format : E-AC-3
Format/Info : Enhanced AC-3
Commercial name : Dolby Digital Plus
Codec ID : A_EAC3
Duration : 1 h 44 min
Bit rate mode : Constant
Bit rate : 640 kb/s
Channel(s) : 6 channels
Channel layout : L R C LFE Ls Rs
Sampling rate : 48.0 kHz
Frame rate : 31.250 FPS (1536 SPF)
Compression mode : Lossy
Stream size : 476 MiB (3%)
Language : English
Service kind : Complete Main
Default : Yes
Forced : No

Text #1
ID : 3
Format : UTF-8
Codec ID : S_TEXT/UTF8
Codec ID/Info : UTF-8 Plain Text
Duration : 1 h 43 min
Bit rate : 77 b/s
Frame rate : 0.347 FPS
Count of elements : 2144
Stream size : 58.7 KiB (0%)
Language : English
Default : No
Forced : No

Text #2
ID : 4
Format : UTF-8
Codec ID : S_TEXT/UTF8
Codec ID/Info : UTF-8 Plain Text
Duration : 1 h 43 min
Bit rate : 80 b/s
Frame rate : 0.363 FPS
Count of elements : 2250
Stream size : 61.2 KiB (0%)
Title : SDH
Language : English
Default : No
Forced : No

Menu
00:00:00.000 : en:Chapter 1
00:10:13.029 : en:Chapter 2
00:18:39.869 : en:Chapter 3
00:30:05.764 : en:Chapter 4
00:43:15.595 : en:Chapter 5
00:54:31.229 : en:Chapter 6
01:03:47.285 : en:Chapter 7
01:13:38.418 : en:Chapter 8
01:23:02.065 : en:Chapter 9
01:32:11.865 : en:Chapter 10
01:40:38.496 : en:Chapter 11


资源速度为零或资源敏感被和谐时,推荐使用qBittorrent等下载软件,有条件的推荐115更好的下载软件!

下载地址:


游客,如果您要查看本帖隐藏内容请回复

游客,如果您要查看本帖隐藏内容请回复

游客,如果您要查看本帖隐藏内容请回复

游客,如果您要查看本帖隐藏内容请回复





上一篇:夏洛特的网 [简繁中字] / Charlotte's Web (2006) 4K高清版本下载
下一篇:新铁路少年 / The Railway Children Return (2022) 4K高清版本下载
回复

使用道具 举报

4

主题

1640

帖子

4520

积分

4K家园VIP

Rank: 9Rank: 9Rank: 9

积分
4520
发表于 2022-8-29 10:38:18 来自手机 | 显示全部楼层
顶起出售广告位
回复 支持 反对

使用道具 举报

0

主题

8668

帖子

2万

积分

4K家园VIP

Rank: 9Rank: 9Rank: 9

积分
20210
发表于 2022-8-29 11:55:35 | 显示全部楼层
太好啦&萬分感謝版主的無私發佈分享%
回复 支持 反对

使用道具 举报

50

主题

1471

帖子

4223

积分

4K家园VIP

Rank: 9Rank: 9Rank: 9

积分
4223
发表于 2022-8-29 11:56:05 | 显示全部楼层
有空一起交流一下
回复 支持 反对

使用道具 举报

52

主题

1539

帖子

4439

积分

4K家园VIP

Rank: 9Rank: 9Rank: 9

积分
4439
发表于 2022-8-29 14:22:45 | 显示全部楼层
啥玩应呀
回复 支持 反对

使用道具 举报

2

主题

1593

帖子

4625

积分

4K家园VIP

Rank: 9Rank: 9Rank: 9

积分
4625
发表于 2022-8-29 14:35:09 | 显示全部楼层
高手啊
回复 支持 反对

使用道具 举报

1

主题

1380

帖子

3972

积分

4K家园VIP

Rank: 9Rank: 9Rank: 9

积分
3972
发表于 2022-8-29 14:59:08 | 显示全部楼层
多谢楼主分享
回复 支持 反对

使用道具 举报

0

主题

8668

帖子

2万

积分

4K家园VIP

Rank: 9Rank: 9Rank: 9

积分
20210
发表于 2022-8-29 19:37:13 | 显示全部楼层
旋轉人生4k
回复 支持 反对

使用道具 举报

您需要登录后才可以回帖 登录 | 立即注册

本版积分规则

精彩图文
Archiver|手机版|TAG|Sitemap|新帖|专题|联系我们:邮箱: 4kjia.com@gmail.com   

4k家园   ©2019