[4K电影] 美国狙击手 / American Sniper (2014) 4K高清版本下载

[复制链接]

2327

主题

2476

帖子

1万

积分

超级版主

Rank: 8Rank: 8

积分
17940
 楼主| 发表于 2022-8-30 20:39:12 | 显示全部楼层 |阅读模式
本帖最后由 最爱4K哟 于 2022-9-8 19:54 编辑

QQ图片20220830203020_副本.png

◎标  题 美国狙击手
◎片  名 American Sniper
◎年  代 2014
◎产  地 美国
◎类  别 动作 / 传记 / 战争
◎语  言 英语 / 阿拉伯语
◎上映日期 2014-11-11(AFI影展) / 2015-01-16(美国)
◎IMDb评分 7.3/10 from 482398 users 更新 : 2022-08-30
◎IMDb链接 https://www.imdb.com/title/tt2179136/
◎豆瓣评分 7.7/10 from 113456 users 更新 : 2022-08-30
◎豆瓣链接 https://movie.douban.com/subject/21263666/
◎片  长 132分钟
◎导  演 克林特·伊斯特伍德 Clint Eastwood
◎编  剧 杰森·霍尔 Jason Hall
◎演  员 布莱德利·库珀 Bradley Cooper
       西耶娜·米勒 Sienna Miller
       卢克·葛莱姆斯 Luke Grimes
       凯尔·加尔纳 Kyle Gallner
       杰克·麦克道曼 Jake McDorman
       山姆·贾格 Sam Jaeger
       基尔·奥唐纳 Keir O'Donnell
       艾瑞克·克罗斯 Eric Close
       布莱恩·哈利塞 Brian Hallisay
       科里·哈德里克 Cory Hardrict
       玛内特·帕特森 Marnette Patterson
       埃里克·拉丁 Eric Ladin
       纳维德·内加班 Navid Negahban
       阿萨夫·科恩 Assaf Cohen
       萨米·谢伊克 Sammy Sheik
       托尼·内华达 Tony Nevada
       埃利斯·罗伯特森 Elise Robertson
       蔡斯·凯利 Chance Kelly
       米多·哈马达 Mido Hamada
       法希姆·法兹利 Fahim Fazli
       杰特·尤尔根斯米尔 Jet Jurgensmeyer
       布伦特·古铁雷斯 Brent Gutierrez
       克林特·伊斯特伍德 Clint Eastwood
       比利·米勒 Billy Miller
       艾丹·麦格罗 Aidan McGraw
       乔纳森·格罗夫 Jonathan Groff
       扎克·杜哈梅 Zack Duhame
       艾瑞克·奥德 Erik Aude
       蒂姆·格里芬 Tim Griffin
       伊万·加姆贝尔 Evan Gamble
       布兰登·伊顿 Brando Eaton
       莱昂纳德·罗伯茨 Leonard Roberts
       特洛伊·文森特 Troy Vincent
       本·里德 Ben Reed
       安东尼·詹宁斯 Anthony Jennings
       欧文·约曼 Owain Yeoman
      布莱德利·库珀 Bradley Cooper
      彼得·摩根 Peter Morgan
      克林特·伊斯特伍德 Clint Eastwood
      安德鲁·拉泽尔 Andrew Lazar
      克林特·伊斯特伍德 Clint Eastwood
      约瑟夫·S·德比西 Joseph S. DeBeasi
      杰弗里·麦克拉特 Geoffrey Miclat
      阿兰·罗伯特·默里 Alan Robert Murray
      罗恩·安德达尔 Ron Underdahl


◎简  介


  克里斯·凯尔(布莱德利·库珀 Bradley Cooper 饰)原本是一名普通美国牛仔,“911”事件以后他以30岁的高龄参加了海豹突击队,并成为了伊拉克战场上的一名优秀狙击手。参军之后克里斯认识了塔雅(西耶娜·米勒 Sienna Miller 饰),两人很快结婚生子,但是随着克里斯的多次出征伊拉克,两人的家庭发生了很多问题。战场上的克里斯十分优秀,被队友称呼为“传奇”,恐怖分子以高额奖金请职业狙击手猎杀他,但屡次都未得手,可是身边的队友却一个个遭遇不测,虽然妻子三番五次恳求他退伍,但是他抱着为队友复仇的信念最后一次出征……
本片改编自克里斯·凯尔的自传《美国狙击手》

Video
ID : 1
Format : HEVC
Format/Info : High Efficiency Video Coding
Format profile : Main 10@L5@High
HDR format : SMPTE ST 2086, HDR10 compatible
Codec ID : V_MPEGH/ISO/HEVC
Duration : 2 h 12 min
Bit rate : 23.9 Mb/s
Width : 3 840 pixels
Height : 2 160 pixels
Display aspect ratio : 16:9
Frame rate mode : Constant
Frame rate : 23.976 (24000/1001) FPS
Color space : YUV
Chroma subsampling : 4:2:0 (Type 2)
Bit depth : 10 bits
Bits/(Pixel*Frame) : 0.120
Stream size : 22.2 GiB (85%)
Default : No
Forced : No
Color range : Limited
Color primaries : BT.2020
Transfer characteristics : PQ
Matrix coefficients : BT.2020 non-constant
Mastering display color primaries : R: x=0.680000 y=0.320000, G: x=0.265000 y=0.690000, B: x=0.150000 y=0.060000, White point: x=0.313000 y=0.329000
Mastering display luminance : min: 0.0050 cd/m2, max: 4000 cd/m2
Maximum Content Light Level : 163 cd/m2
Maximum Frame-Average Light Level : 47 cd/m2

Audio #1
ID : 2
Format : DTS XLL
Format/Info : Digital Theater Systems
Commercial name : DTS-HD Master Audio
Codec ID : A_DTS
Duration : 2 h 12 min
Bit rate mode : Variable
Bit rate : 3 590 kb/s
Channel(s) : 8 channels
Channel layout : C L R LFE Lb Rb Lss Rss
Sampling rate : 48.0 kHz
Frame rate : 93.750 FPS (512 SPF)
Bit depth : 24 bits
Compression mode : Lossless
Delay relative to video : 3 ms
Stream size : 3.33 GiB (13%)
Title : DTS-HD MA 7.1
Language : English
Default : Yes
Forced : No

Audio #2
ID : 3
Format : AC-3
Format/Info : Audio Coding 3
Commercial name : Dolby Digital
Codec ID : A_AC3
Duration : 2 h 12 min
Bit rate mode : Constant
Bit rate : 640 kb/s
Channel(s) : 6 channels
Channel layout : L R C LFE Ls Rs
Sampling rate : 48.0 kHz
Frame rate : 31.250 FPS (1536 SPF)
Compression mode : Lossy
Stream size : 607 MiB (2%)
Title : DD 5.1
Language : English
Service kind : Complete Main
Default : No
Forced : No

Text #1
ID : 4
Format : UTF-8
Codec ID : S_TEXT/UTF8
Codec ID/Info : UTF-8 Plain Text
Duration : 2 h 2 min
Bit rate : 64 b/s
Frame rate : 0.273 FPS
Count of elements : 2011
Stream size : 57.7 KiB (0%)
Language : English
Default : Yes
Forced : No

Text #2
ID : 5
Format : UTF-8
Codec ID : S_TEXT/UTF8
Codec ID/Info : UTF-8 Plain Text
Duration : 2 h 4 min
Bit rate : 71 b/s
Frame rate : 0.314 FPS
Count of elements : 2338
Stream size : 65.2 KiB (0%)
Title : SDH
Language : English
Default : No
Forced : No

Menu
00:00:00.000 : en:00:00:00.000
00:10:13.931 : en:00:10:15.240
00:18:55.618 : en:00:18:56.927
00:28:26.272 : en:00:28:27.581
00:39:03.116 : en:00:39:04.425
00:50:56.329 : en:00:50:57.638
01:00:05.419 : en:01:00:06.728
01:07:55.138 : en:01:07:56.447
01:28:42.718 : en:01:28:44.027
01:37:23.405 : en:01:37:24.714
01:45:56.042 : en:01:45:57.351
01:54:42.693 : en:01:54:44.002
02:04:12.054 : en:02:04:13.363

资源速度为零或资源敏感被和谐时,推荐使用qBittorrent等下载软件,有条件的推荐115更好的下载软件!

下载地址:

游客,如果您要查看本帖隐藏内容请回复

游客,如果您要查看本帖隐藏内容请回复

游客,如果您要查看本帖隐藏内容请回复

游客,如果您要查看本帖隐藏内容请回复


以下为以往下载链接:
游客,如果您要查看本帖隐藏内容请回复

游客,如果您要查看本帖隐藏内容请回复

游客,如果您要查看本帖隐藏内容请回复






上一篇:新铁路少年 / The Railway Children Return (2022) 4K高清版本下载
下一篇:吹哨人:美国体操队性侵丑闻追踪 (2014) 4K高清版本下载
回复

使用道具 举报

4

主题

1670

帖子

4610

积分

4K家园VIP

Rank: 9Rank: 9Rank: 9

积分
4610
发表于 2022-8-30 20:39:23 | 显示全部楼层
支持,楼下的跟上哈~
回复 支持 反对

使用道具 举报

0

主题

1381

帖子

3993

积分

4K家园VIP

Rank: 9Rank: 9Rank: 9

积分
3993
发表于 2022-8-30 21:05:46 | 显示全部楼层
啥玩应呀
回复 支持 反对

使用道具 举报

46

主题

1516

帖子

4392

积分

4K家园VIP

Rank: 9Rank: 9Rank: 9

积分
4392
发表于 2022-8-30 22:04:18 来自手机 | 显示全部楼层
边撸边过
回复 支持 反对

使用道具 举报

55

主题

1541

帖子

4455

积分

4K家园VIP

Rank: 9Rank: 9Rank: 9

积分
4455
发表于 2022-8-30 22:54:05 | 显示全部楼层
我也来顶一下..
回复 支持 反对

使用道具 举报

58

主题

1571

帖子

4523

积分

4K家园VIP

Rank: 9Rank: 9Rank: 9

积分
4523
发表于 2022-8-31 00:11:15 | 显示全部楼层
在撸一遍。。。
回复 支持 反对

使用道具 举报

0

主题

3

帖子

16

积分

新手上路

Rank: 1

积分
16
发表于 2022-9-9 10:58:59 | 显示全部楼层
我也来顶一下
回复 支持 反对

使用道具 举报

您需要登录后才可以回帖 登录 | 立即注册

本版积分规则

精彩图文
Archiver|手机版|TAG|Sitemap|新帖|专题|联系我们:邮箱: 4kjia.com@gmail.com   

4k家园   ©2019