[4K电影] 问鼎之声:球场成长日记 [简繁中字] (2021)4K高清版本下载

[复制链接]

2327

主题

2476

帖子

1万

积分

超级版主

Rank: 8Rank: 8

积分
17940
 楼主| 发表于 2022-8-30 20:59:56 | 显示全部楼层 |阅读模式
本帖最后由 最爱4K哟 于 2022-8-30 21:04 编辑

QQ图片20220830205200_副本.png

◎标  题 问鼎之声:球场成长日记
◎片  名 Audible
◎年  代 2021
◎产  地 美国
◎类  别 纪录片 / 短片 / 运动
◎语  言 英语
◎上映日期 2021-07-01(美国)
◎IMDb评分 6.7/10 from 2367 users 更新 : 2022-08-28
◎IMDb链接 https://www.imdb.com/title/tt12771540/
◎豆瓣评分 6.7/10 from 147 users 更新 : 2022-08-30
◎豆瓣链接 https://movie.douban.com/subject/35466428/
◎片  长 39分钟
◎导  演 马修·欧根斯 Matthew Ogens


◎简  介

        足球运动员阿玛莉·麦肯斯特里·霍尔和他的马里兰聋哑学校的队友们试图在与失去一位亲密朋友的悲剧。

Video
ID : 1
Format : HEVC
Format/Info : High Efficiency Video Coding
Format profile : Main 10@L5@Main
Codec ID : V_MPEGH/ISO/HEVC
Duration : 38 min 55 s
Bit rate : 11.8 Mb/s
Width : 3 840 pixels
Height : 2 160 pixels
Display aspect ratio : 16:9
Frame rate mode : Constant
Frame rate : 23.976 (24000/1001) FPS
Color space : YUV
Chroma subsampling : 4:2:0
Bit depth : 10 bits
Bits/(Pixel*Frame) : 0.059
Stream size : 3.21 GiB (95%)
Default : No
Forced : No
Color range : Limited
Color primaries : BT.709
Transfer characteristics : BT.709
Matrix coefficients : BT.709

Audio
ID : 2
Format : E-AC-3
Format/Info : Enhanced AC-3
Commercial name : Dolby Digital Plus
Codec ID : A_EAC3
Duration : 38 min 55 s
Bit rate mode : Constant
Bit rate : 640 kb/s
Channel(s) : 6 channels
Channel layout : L R C LFE Ls Rs
Sampling rate : 48.0 kHz
Frame rate : 31.250 FPS (1536 SPF)
Compression mode : Lossy
Stream size : 178 MiB (5%)
Language : English
Service kind : Complete Main
Default : No
Forced : No

Text #1
ID : 3
Format : UTF-8
Codec ID : S_TEXT/UTF8
Codec ID/Info : UTF-8 Plain Text
Duration : 35 min 0 s
Bit rate : 71 b/s
Frame rate : 0.099 FPS
Count of elements : 207
Stream size : 18.2 KiB (0%)
Title : Forced
Language : English
Default : No
Forced : Yes

Text #2
ID : 4
Format : UTF-8
Codec ID : S_TEXT/UTF8
Codec ID/Info : UTF-8 Plain Text
Duration : 35 min 0 s
Bit rate : 43 b/s
Frame rate : 0.141 FPS
Count of elements : 297
Stream size : 11.1 KiB (0%)
Language : English
Default : No
Forced : No

Text #3
ID : 5
Format : UTF-8
Codec ID : S_TEXT/UTF8
Codec ID/Info : UTF-8 Plain Text
Duration : 36 min 27 s
Bit rate : 60 b/s
Frame rate : 0.213 FPS
Count of elements : 466
Stream size : 16.1 KiB (0%)
Title : SDH
Language : English
Default : No
Forced : No

Text #4
ID : 6
Format : UTF-8
Codec ID : S_TEXT/UTF8
Codec ID/Info : UTF-8 Plain Text
Duration : 36 min 41 s
Bit rate : 39 b/s
Frame rate : 0.140 FPS
Count of elements : 308
Stream size : 10.7 KiB (0%)
Language : Malay
Default : No
Forced : No

Text #5
ID : 7
Format : UTF-8
Codec ID : S_TEXT/UTF8
Codec ID/Info : UTF-8 Plain Text
Duration : 36 min 41 s
Bit rate : 40 b/s
Frame rate : 0.140 FPS
Count of elements : 309
Stream size : 10.9 KiB (0%)
Language : German
Default : No
Forced : No

Text #6
ID : 8
Format : UTF-8
Codec ID : S_TEXT/UTF8
Codec ID/Info : UTF-8 Plain Text
Duration : 36 min 41 s
Bit rate : 38 b/s
Frame rate : 0.142 FPS
Count of elements : 312
Stream size : 10.3 KiB (0%)
Language : Spanish
Default : No
Forced : No

Text #7
ID : 9
Format : UTF-8
Codec ID : S_TEXT/UTF8
Codec ID/Info : UTF-8 Plain Text
Duration : 36 min 41 s
Bit rate : 38 b/s
Frame rate : 0.141 FPS
Count of elements : 311
Stream size : 10.3 KiB (0%)
Language : Danish
Default : No
Forced : No

Text #8
ID : 10
Format : UTF-8
Codec ID : S_TEXT/UTF8
Codec ID/Info : UTF-8 Plain Text
Duration : 36 min 41 s
Bit rate : 39 b/s
Frame rate : 0.140 FPS
Count of elements : 309
Stream size : 10.7 KiB (0%)
Language : Italian
Default : No
Forced : No

Text #9
ID : 11
Format : UTF-8
Codec ID : S_TEXT/UTF8
Codec ID/Info : UTF-8 Plain Text
Duration : 36 min 44 s
Bit rate : 67 b/s
Frame rate : 0.139 FPS
Count of elements : 307
Stream size : 18.1 KiB (0%)
Language : Ukrainian
Default : No
Forced : No

Text #10
ID : 12
Format : UTF-8
Codec ID : S_TEXT/UTF8
Codec ID/Info : UTF-8 Plain Text
Duration : 36 min 27 s
Bit rate : 74 b/s
Frame rate : 0.207 FPS
Count of elements : 452
Stream size : 19.9 KiB (0%)
Language : Japanese
Default : No
Forced : No

Text #11
ID : 13
Format : UTF-8
Codec ID : S_TEXT/UTF8
Codec ID/Info : UTF-8 Plain Text
Duration : 36 min 41 s
Bit rate : 38 b/s
Frame rate : 0.142 FPS
Count of elements : 312
Stream size : 10.4 KiB (0%)
Title : European
Language : Spanish
Default : No
Forced : No

Text #12
ID : 14
Format : UTF-8
Codec ID : S_TEXT/UTF8
Codec ID/Info : UTF-8 Plain Text
Duration : 36 min 46 s
Bit rate : 45 b/s
Frame rate : 0.146 FPS
Count of elements : 323
Stream size : 12.3 KiB (0%)
Language : Korean
Default : No
Forced : No

Text #13
ID : 15
Format : UTF-8
Codec ID : S_TEXT/UTF8
Codec ID/Info : UTF-8 Plain Text
Duration : 36 min 41 s
Bit rate : 38 b/s
Frame rate : 0.141 FPS
Count of elements : 310
Stream size : 10.3 KiB (0%)
Title : Brazilian
Language : Portuguese
Default : No
Forced : No

Text #14
ID : 16
Format : UTF-8
Codec ID : S_TEXT/UTF8
Codec ID/Info : UTF-8 Plain Text
Duration : 36 min 46 s
Bit rate : 38 b/s
Frame rate : 0.147 FPS
Count of elements : 325
Stream size : 10.4 KiB (0%)
Title : 中文(繁体)
Language : 中文
Default : No
Forced : No

Text #15
ID : 17
Format : UTF-8
Codec ID : S_TEXT/UTF8
Codec ID/Info : UTF-8 Plain Text
Duration : 36 min 46 s
Bit rate : 37 b/s
Frame rate : 0.146 FPS
Count of elements : 322
Stream size : 9.98 KiB (0%)
Title : 中文(简体)
Language : 中文
Default : No
Forced : No

Text #16
ID : 18
Format : UTF-8
Codec ID : S_TEXT/UTF8
Codec ID/Info : UTF-8 Plain Text
Duration : 36 min 41 s
Bit rate : 38 b/s
Frame rate : 0.140 FPS
Count of elements : 309
Stream size : 10.4 KiB (0%)
Language : Czech
Default : No
Forced : No

Text #17
ID : 19
Format : UTF-8
Codec ID : S_TEXT/UTF8
Codec ID/Info : UTF-8 Plain Text
Duration : 36 min 41 s
Bit rate : 39 b/s
Frame rate : 0.129 FPS
Count of elements : 285
Stream size : 10.7 KiB (0%)
Language : Swedish
Default : No
Forced : No

Text #18
ID : 20
Format : UTF-8
Codec ID : S_TEXT/UTF8
Codec ID/Info : UTF-8 Plain Text
Duration : 36 min 41 s
Bit rate : 34 b/s
Frame rate : 0.139 FPS
Count of elements : 305
Stream size : 9.36 KiB (0%)
Language : Croatian
Default : No
Forced : No

Text #19
ID : 21
Format : UTF-8
Codec ID : S_TEXT/UTF8
Codec ID/Info : UTF-8 Plain Text
Duration : 35 min 0 s
Bit rate : 41 b/s
Frame rate : 0.147 FPS
Count of elements : 309
Stream size : 10.6 KiB (0%)
Language : French
Default : No
Forced : No

Text #20
ID : 22
Format : UTF-8
Codec ID : S_TEXT/UTF8
Codec ID/Info : UTF-8 Plain Text
Duration : 36 min 46 s
Bit rate : 63 b/s
Frame rate : 0.144 FPS
Count of elements : 318
Stream size : 17.1 KiB (0%)
Language : Russian
Default : No
Forced : No

Text #21
ID : 23
Format : UTF-8
Codec ID : S_TEXT/UTF8
Codec ID/Info : UTF-8 Plain Text
Duration : 36 min 41 s
Bit rate : 39 b/s
Frame rate : 0.141 FPS
Count of elements : 310
Stream size : 10.6 KiB (0%)
Language : Romanian
Default : No
Forced : No

Text #22
ID : 24
Format : UTF-8
Codec ID : S_TEXT/UTF8
Codec ID/Info : UTF-8 Plain Text
Duration : 36 min 41 s
Bit rate : 96 b/s
Frame rate : 0.134 FPS
Count of elements : 296
Stream size : 26.0 KiB (0%)
Language : Thai
Default : No
Forced : No

Text #23
ID : 25
Format : UTF-8
Codec ID : S_TEXT/UTF8
Codec ID/Info : UTF-8 Plain Text
Duration : 36 min 41 s
Bit rate : 39 b/s
Frame rate : 0.138 FPS
Count of elements : 303
Stream size : 10.6 KiB (0%)
Language : Polish
Default : No
Forced : No

Text #24
ID : 26
Format : UTF-8
Codec ID : S_TEXT/UTF8
Codec ID/Info : UTF-8 Plain Text
Duration : 36 min 41 s
Bit rate : 54 b/s
Frame rate : 0.143 FPS
Count of elements : 314
Stream size : 14.6 KiB (0%)
Language : Vietnamese
Default : No
Forced : No

Text #25
ID : 27
Format : UTF-8
Codec ID : S_TEXT/UTF8
Codec ID/Info : UTF-8 Plain Text
Duration : 36 min 41 s
Bit rate : 40 b/s
Frame rate : 0.139 FPS
Count of elements : 306
Stream size : 10.9 KiB (0%)
Language : Hungarian
Default : No
Forced : No

Text #26
ID : 28
Format : UTF-8
Codec ID : S_TEXT/UTF8
Codec ID/Info : UTF-8 Plain Text
Duration : 36 min 41 s
Bit rate : 38 b/s
Frame rate : 0.126 FPS
Count of elements : 278
Stream size : 10.2 KiB (0%)
Language : Dutch
Default : No
Forced : No

Text #27
ID : 29
Format : UTF-8
Codec ID : S_TEXT/UTF8
Codec ID/Info : UTF-8 Plain Text
Duration : 37 min 59 s
Bit rate : 61 b/s
Frame rate : 0.215 FPS
Count of elements : 490
Stream size : 17.2 KiB (0%)
Language : Arabic
Default : No
Forced : No

Text #28
ID : 30
Format : UTF-8
Codec ID : S_TEXT/UTF8
Codec ID/Info : UTF-8 Plain Text
Duration : 36 min 41 s
Bit rate : 36 b/s
Frame rate : 0.140 FPS
Count of elements : 308
Stream size : 9.85 KiB (0%)
Language : Norwegian Bokmal
Default : No
Forced : No

Text #29
ID : 31
Format : UTF-8
Codec ID : S_TEXT/UTF8
Codec ID/Info : UTF-8 Plain Text
Duration : 36 min 41 s
Bit rate : 39 b/s
Frame rate : 0.138 FPS
Count of elements : 303
Stream size : 10.5 KiB (0%)
Language : Turkish
Default : No
Forced : No

Text #30
ID : 32
Format : UTF-8
Codec ID : S_TEXT/UTF8
Codec ID/Info : UTF-8 Plain Text
Duration : 36 min 41 s
Bit rate : 39 b/s
Frame rate : 0.138 FPS
Count of elements : 304
Stream size : 10.5 KiB (0%)
Language : Indonesian
Default : No
Forced : No

Text #31
ID : 33
Format : UTF-8
Codec ID : S_TEXT/UTF8
Codec ID/Info : UTF-8 Plain Text
Duration : 36 min 41 s
Bit rate : 34 b/s
Frame rate : 0.135 FPS
Count of elements : 297
Stream size : 9.28 KiB (0%)
Language : Finnish
Default : No
Forced : No

Text #32
ID : 34
Format : UTF-8
Codec ID : S_TEXT/UTF8
Codec ID/Info : UTF-8 Plain Text
Duration : 36 min 46 s
Bit rate : 51 b/s
Frame rate : 0.147 FPS
Count of elements : 324
Stream size : 13.9 KiB (0%)
Language : Hebrew
Default : No
Forced : No

Text #33
ID : 35
Format : UTF-8
Codec ID : S_TEXT/UTF8
Codec ID/Info : UTF-8 Plain Text
Duration : 36 min 46 s
Bit rate : 70 b/s
Frame rate : 0.145 FPS
Count of elements : 321
Stream size : 19.0 KiB (0%)
Language : Greek
Default : No
Forced : No

Text #34
ID : 36
Format : UTF-8
Codec ID : S_TEXT/UTF8
Codec ID/Info : UTF-8 Plain Text
Duration : 36 min 41 s
Bit rate : 40 b/s
Frame rate : 0.142 FPS
Count of elements : 312
Stream size : 11.0 KiB (0%)
Language : Portuguese
Default : No
Forced : No

资源速度为零或资源敏感被和谐时,推荐使用qBittorrent等下载软件,有条件的推荐115更好的下载软件!

下载地址:


游客,如果您要查看本帖隐藏内容请回复





上一篇:吹哨人:美国体操队性侵丑闻追踪 (2014) 4K高清版本下载
下一篇:博·伯翰:隔离在家 [简繁中字] (2021) 4K高清版本下载
回复

使用道具 举报

5

主题

1383

帖子

4175

积分

4K家园VIP

Rank: 9Rank: 9Rank: 9

积分
4175
发表于 2022-8-30 21:00:01 | 显示全部楼层
我只是路过,不发表意见
回复 支持 反对

使用道具 举报

0

主题

8663

帖子

2万

积分

4K家园VIP

Rank: 9Rank: 9Rank: 9

积分
20189
发表于 2022-8-30 23:55:36 | 显示全部楼层
太好啦&萬分感謝版主的無私發佈分享%
回复 支持 反对

使用道具 举报

1

主题

1280

帖子

3858

积分

4K家园VIP

Rank: 9Rank: 9Rank: 9

积分
3858
发表于 2022-8-31 03:16:18 | 显示全部楼层
广告位,,坐下看看
回复 支持 反对

使用道具 举报

41

主题

1543

帖子

4461

积分

4K家园VIP

Rank: 9Rank: 9Rank: 9

积分
4461
发表于 2022-9-8 23:04:26 来自手机 | 显示全部楼层
支持,楼下的跟上哈~
回复 支持 反对

使用道具 举报

1

主题

1309

帖子

3951

积分

4K家园VIP

Rank: 9Rank: 9Rank: 9

积分
3951
发表于 2022-9-10 15:21:45 | 显示全部楼层
站位支持
回复 支持 反对

使用道具 举报

34

主题

1560

帖子

4390

积分

4K家园VIP

Rank: 9Rank: 9Rank: 9

积分
4390
发表于 2022-9-10 21:07:58 | 显示全部楼层
LZ敢整点更有创意的不?兄弟们等着围观捏~
回复 支持 反对

使用道具 举报

您需要登录后才可以回帖 登录 | 立即注册

本版积分规则

精彩图文
Archiver|手机版|TAG|Sitemap|新帖|专题|联系我们:邮箱: 4kjia.com@gmail.com   

4k家园   ©2019