[4K电影] 乡下人的悲歌 [简繁中字] / Hillbilly Elegy (2020) 4K高清版本下载

[复制链接]

2327

主题

2476

帖子

1万

积分

超级版主

Rank: 8Rank: 8

积分
17940
 楼主| 发表于 2022-8-30 21:37:16 | 显示全部楼层 |阅读模式
QQ图片20220830213546_副本.png

◎标  题 乡下人的悲歌
◎译  名 绝望者之歌(港 / 台) / 乡巴佬的哀歌 / 山乡挽歌
◎片  名 Hillbilly Elegy
◎年  代 2020
◎产  地 美国
◎类  别 剧情
◎语  言 英语
◎上映日期 2020-11-11(韩国点映) / 2020-11-24(美国网络)
◎IMDb评分 6.7/10 from 42073 users 更新 : 2022-08-28
◎IMDb链接 https://www.imdb.com/title/tt6772802/
◎豆瓣评分 7.7/10 from 6812 users 更新 : 2022-08-30
◎豆瓣链接 https://movie.douban.com/subject/27016691/
◎片  长 116分钟
◎导  演 朗·霍华德 Ron Howard
◎编  剧 瓦内莎·泰勒 Vanessa Taylor / J. D.万斯 J.D. Vance
◎演  员 艾米·亚当斯 Amy Adams
       格伦·克洛斯 Glenn Close
       加布里埃尔·巴索 Gabriel Basso
       海莉·贝内特 Haley Bennett
       芙蕾达·平托 Freida Pinto
       博·霍普金斯 Bo Hopkins
       欧文·艾斯特罗斯 Owen Asztalos
       杰西·C·博伊德 Jesse C. Boyd
       史蒂芬·坤肯 Stephen Kunken
       申庚 Keong Sim
       大卫·德怀尔 David Dwyer
       桑妮·马布雷 Sunny Mabrey
       埃德·阿玛特鲁多 Ed Amatrudo
       大卫·德弗里斯 David de Vries
       霍莉·A·莫里斯 Holly A. Morris
       布兰登·赫希 Brandon Hirsch
       大卫·詹森 David Jensen
       斯凯拉·丹尼 Skylar Denney
       威廉·麦克·麦库洛 William Mark McCullough
       杰森·戴维斯 Jason Davis
       科里·查普曼 Cory Chapman
       丹尼尔·R·希尔 Daniel R. Hill
       乔丹·崔威里恩 Jordan Trovillion
       谢丽尔·霍华德 Cheryl Howard
       托尼·瓦德 Tony Ward
       泰丝·马里斯·金凯德 Tess Malis Kincaid
       玛丽·克拉夫特 Mary Kraft
       杰西卡·米塞尔 Jessica Miesel
       西德尼·格蕾丝·卡维尔 Sidney Grace Culwell
       马塞拉·伦茨·波普 Marcella Lentz-Pope
       盖·韦尔曼 Guy Wellman
       蔡斯·莱杰伍德 Chase Ledgerwood
       理查德·杜恩 Richard Doone
       约书亚·布雷迪 Joshua Brady
       J. D.万斯 J.D. Vance
       汉斯·季默 Hans Zimmer
       大卫·佛莱明 David Fleming
       玛丽斯·阿尔伯蒂 Maryse Alberti


◎简  介


  杰德(加布里埃尔·巴索 Gabriel Basso 饰)是在耶律大学法学院攻读法律的天之骄子,在深造之前,他还是一名杰出的海军陆战队队员,如此出色的履历表令无比璀璨的未来在前方等待着他的到来。可就在这个节骨眼上,杰德收到了来自故乡南俄亥俄州的消息,他不得不返回家乡处理复杂的家庭事务,要是到,当初杰德可是费了好大的劲才从那个一团乱麻的家庭之中挣脱出来。
回到家乡后,杰德再度见到了自己喜怒无常、毒瘾缠身的母亲贝芙(艾米·亚当斯 Amy Adams 饰),这唤醒了他关于过于的糟糕的回忆,与此同时,杰德家族中另一位坚强的女性——他的姥姥(格伦·克洛斯 Glenn Close 饰)的形象也鲜活起来。
Video
ID : 1
Format : HEVC
Format/Info : High Efficiency Video Coding
Format profile : Main 10@L5@Main
Codec ID : V_MPEGH/ISO/HEVC
Duration : 1 h 47 min
Bit rate : 11.1 Mb/s
Width : 3 840 pixels
Height : 2 160 pixels
Display aspect ratio : 16:9
Frame rate mode : Constant
Frame rate : 24.000 FPS
Color space : YUV
Chroma subsampling : 4:2:0
Bit depth : 10 bits
Bits/(Pixel*Frame) : 0.056
Stream size : 8.27 GiB (94%)
Default : No
Forced : No
Color range : Limited
Color primaries : BT.709
Transfer characteristics : BT.709
Matrix coefficients : BT.709

Audio
ID : 2
Format : E-AC-3
Format/Info : Enhanced AC-3
Commercial name : Dolby Digital Plus
Codec ID : A_EAC3
Duration : 1 h 47 min
Bit rate mode : Constant
Bit rate : 640 kb/s
Channel(s) : 6 channels
Channel layout : L R C LFE Ls Rs
Sampling rate : 48.0 kHz
Frame rate : 31.250 FPS (1536 SPF)
Compression mode : Lossy
Stream size : 490 MiB (5%)
Language : English
Service kind : Complete Main
Default : No
Forced : No

Text #1
ID : 3
Format : UTF-8
Codec ID : S_TEXT/UTF8
Codec ID/Info : UTF-8 Plain Text
Duration : 1 h 26 min
Bit rate : 3 b/s
Frame rate : 0.007 FPS
Count of elements : 35
Stream size : 2.40 KiB (0%)
Title : Forced
Language : English
Default : No
Forced : Yes

Text #2
ID : 4
Format : UTF-8
Codec ID : S_TEXT/UTF8
Codec ID/Info : UTF-8 Plain Text
Duration : 1 h 37 min
Bit rate : 21 b/s
Frame rate : 0.087 FPS
Count of elements : 506
Stream size : 15.3 KiB (0%)
Language : English
Default : No
Forced : No

Text #3
ID : 5
Format : UTF-8
Codec ID : S_TEXT/UTF8
Codec ID/Info : UTF-8 Plain Text
Duration : 1 h 42 min
Bit rate : 27 b/s
Frame rate : 0.112 FPS
Count of elements : 685
Stream size : 20.4 KiB (0%)
Title : SDH
Language : English
Default : No
Forced : No

Text #4
ID : 6
Format : UTF-8
Codec ID : S_TEXT/UTF8
Codec ID/Info : UTF-8 Plain Text
Duration : 1 h 44 min
Bit rate : 44 b/s
Frame rate : 0.086 FPS
Count of elements : 541
Stream size : 34.1 KiB (0%)
Language : Thai
Default : No
Forced : No

Text #5
ID : 7
Format : UTF-8
Codec ID : S_TEXT/UTF8
Codec ID/Info : UTF-8 Plain Text
Duration : 1 h 45 min
Bit rate : 20 b/s
Frame rate : 0.091 FPS
Count of elements : 573
Stream size : 15.8 KiB (0%)
Language : German
Default : No
Forced : No

Text #6
ID : 8
Format : UTF-8
Codec ID : S_TEXT/UTF8
Codec ID/Info : UTF-8 Plain Text
Duration : 1 h 45 min
Bit rate : 19 b/s
Frame rate : 0.091 FPS
Count of elements : 575
Stream size : 15.1 KiB (0%)
Language : Malay
Default : No
Forced : No

Text #7
ID : 9
Format : UTF-8
Codec ID : S_TEXT/UTF8
Codec ID/Info : UTF-8 Plain Text
Duration : 1 h 45 min
Bit rate : 21 b/s
Frame rate : 0.091 FPS
Count of elements : 578
Stream size : 16.5 KiB (0%)
Title : European
Language : Spanish
Default : No
Forced : No

Text #8
ID : 10
Format : UTF-8
Codec ID : S_TEXT/UTF8
Codec ID/Info : UTF-8 Plain Text
Duration : 1 h 45 min
Bit rate : 19 b/s
Frame rate : 0.091 FPS
Count of elements : 576
Stream size : 14.7 KiB (0%)
Language : Danish
Default : No
Forced : No

Text #9
ID : 11
Format : UTF-8
Codec ID : S_TEXT/UTF8
Codec ID/Info : UTF-8 Plain Text
Duration : 1 h 45 min
Bit rate : 25 b/s
Frame rate : 0.091 FPS
Count of elements : 574
Stream size : 19.9 KiB (0%)
Language : Vietnamese
Default : No
Forced : No

Text #10
ID : 12
Format : UTF-8
Codec ID : S_TEXT/UTF8
Codec ID/Info : UTF-8 Plain Text
Duration : 1 h 45 min
Bit rate : 20 b/s
Frame rate : 0.090 FPS
Count of elements : 572
Stream size : 16.1 KiB (0%)
Language : Polish
Default : No
Forced : No

Text #11
ID : 13
Format : UTF-8
Codec ID : S_TEXT/UTF8
Codec ID/Info : UTF-8 Plain Text
Duration : 1 h 45 min
Bit rate : 16 b/s
Frame rate : 0.094 FPS
Count of elements : 597
Stream size : 13.1 KiB (0%)
Language : Japanese
Default : No
Forced : No

Text #12
ID : 14
Format : UTF-8
Codec ID : S_TEXT/UTF8
Codec ID/Info : UTF-8 Plain Text
Duration : 1 h 45 min
Bit rate : 31 b/s
Frame rate : 0.092 FPS
Count of elements : 584
Stream size : 24.7 KiB (0%)
Language : Ukrainian
Default : No
Forced : No

Text #13
ID : 15
Format : UTF-8
Codec ID : S_TEXT/UTF8
Codec ID/Info : UTF-8 Plain Text
Duration : 1 h 45 min
Bit rate : 21 b/s
Frame rate : 0.091 FPS
Count of elements : 574
Stream size : 16.7 KiB (0%)
Language : Italian
Default : No
Forced : No

Text #14
ID : 16
Format : UTF-8
Codec ID : S_TEXT/UTF8
Codec ID/Info : UTF-8 Plain Text
Duration : 1 h 45 min
Bit rate : 23 b/s
Frame rate : 0.091 FPS
Count of elements : 575
Stream size : 18.2 KiB (0%)
Language : Korean
Default : No
Forced : No

Text #15
ID : 17
Format : UTF-8
Codec ID : S_TEXT/UTF8
Codec ID/Info : UTF-8 Plain Text
Duration : 1 h 45 min
Bit rate : 31 b/s
Frame rate : 0.092 FPS
Count of elements : 583
Stream size : 24.0 KiB (0%)
Language : Arabic
Default : No
Forced : No

Text #16
ID : 18
Format : UTF-8
Codec ID : S_TEXT/UTF8
Codec ID/Info : UTF-8 Plain Text
Duration : 1 h 45 min
Bit rate : 19 b/s
Frame rate : 0.090 FPS
Count of elements : 567
Stream size : 15.2 KiB (0%)
Language : Dutch
Default : No
Forced : No

Text #17
ID : 19
Format : UTF-8
Codec ID : S_TEXT/UTF8
Codec ID/Info : UTF-8 Plain Text
Duration : 1 h 45 min
Bit rate : 20 b/s
Frame rate : 0.091 FPS
Count of elements : 575
Stream size : 15.6 KiB (0%)
Language : Swahili
Default : No
Forced : No

Text #18
ID : 20
Format : UTF-8
Codec ID : S_TEXT/UTF8
Codec ID/Info : UTF-8 Plain Text
Duration : 1 h 45 min
Bit rate : 18 b/s
Frame rate : 0.091 FPS
Count of elements : 578
Stream size : 14.7 KiB (0%)
Title : 中文(简体)
Language : 中文
Default : No
Forced : No


Text #19
ID : 21
Format : UTF-8
Codec ID : S_TEXT/UTF8
Codec ID/Info : UTF-8 Plain Text
Duration : 1 h 45 min
Bit rate : 19 b/s
Frame rate : 0.087 FPS
Count of elements : 549
Stream size : 15.1 KiB (0%)
Language : Spanish
Default : No
Forced : No

Text #20
ID : 22
Format : UTF-8
Codec ID : S_TEXT/UTF8
Codec ID/Info : UTF-8 Plain Text
Duration : 1 h 45 min
Bit rate : 20 b/s
Frame rate : 0.090 FPS
Count of elements : 570
Stream size : 15.9 KiB (0%)
Language : Swedish
Default : No
Forced : No

Text #21
ID : 23
Format : UTF-8
Codec ID : S_TEXT/UTF8
Codec ID/Info : UTF-8 Plain Text
Duration : 1 h 45 min
Bit rate : 19 b/s
Frame rate : 0.091 FPS
Count of elements : 576
Stream size : 15.1 KiB (0%)
Title : 中文(繁体)
Language : 中文
Default : No
Forced : No


Text #22
ID : 24
Format : UTF-8
Codec ID : S_TEXT/UTF8
Codec ID/Info : UTF-8 Plain Text
Duration : 1 h 45 min
Bit rate : 21 b/s
Frame rate : 0.091 FPS
Count of elements : 575
Stream size : 16.3 KiB (0%)
Language : Norwegian Bokmal
Default : No
Forced : No

Text #23
ID : 25
Format : UTF-8
Codec ID : S_TEXT/UTF8
Codec ID/Info : UTF-8 Plain Text
Duration : 1 h 45 min
Bit rate : 20 b/s
Frame rate : 0.090 FPS
Count of elements : 569
Stream size : 15.7 KiB (0%)
Language : French
Default : No
Forced : No

Text #24
ID : 26
Format : UTF-8
Codec ID : S_TEXT/UTF8
Codec ID/Info : UTF-8 Plain Text
Duration : 1 h 45 min
Bit rate : 21 b/s
Frame rate : 0.090 FPS
Count of elements : 570
Stream size : 16.5 KiB (0%)
Language : Czech
Default : No
Forced : No

Text #25
ID : 27
Format : UTF-8
Codec ID : S_TEXT/UTF8
Codec ID/Info : UTF-8 Plain Text
Duration : 1 h 45 min
Bit rate : 19 b/s
Frame rate : 0.088 FPS
Count of elements : 559
Stream size : 15.2 KiB (0%)
Title : Brazilian
Language : Portuguese
Default : No
Forced : No

Text #26
ID : 28
Format : UTF-8
Codec ID : S_TEXT/UTF8
Codec ID/Info : UTF-8 Plain Text
Duration : 1 h 45 min
Bit rate : 21 b/s
Frame rate : 0.091 FPS
Count of elements : 575
Stream size : 16.7 KiB (0%)
Language : Indonesian
Default : No
Forced : No

Text #27
ID : 29
Format : UTF-8
Codec ID : S_TEXT/UTF8
Codec ID/Info : UTF-8 Plain Text
Duration : 1 h 45 min
Bit rate : 19 b/s
Frame rate : 0.091 FPS
Count of elements : 573
Stream size : 15.3 KiB (0%)
Language : Finnish
Default : No
Forced : No

Text #28
ID : 30
Format : UTF-8
Codec ID : S_TEXT/UTF8
Codec ID/Info : UTF-8 Plain Text
Duration : 1 h 45 min
Bit rate : 20 b/s
Frame rate : 0.089 FPS
Count of elements : 564
Stream size : 16.0 KiB (0%)
Language : Hungarian
Default : No
Forced : No

Text #29
ID : 31
Format : UTF-8
Codec ID : S_TEXT/UTF8
Codec ID/Info : UTF-8 Plain Text
Duration : 1 h 45 min
Bit rate : 34 b/s
Frame rate : 0.092 FPS
Count of elements : 584
Stream size : 26.5 KiB (0%)
Language : Greek
Default : No
Forced : No

Text #30
ID : 32
Format : UTF-8
Codec ID : S_TEXT/UTF8
Codec ID/Info : UTF-8 Plain Text
Duration : 1 h 45 min
Bit rate : 20 b/s
Frame rate : 0.088 FPS
Count of elements : 559
Stream size : 16.2 KiB (0%)
Language : Turkish
Default : No
Forced : No

Text #31
ID : 33
Format : UTF-8
Codec ID : S_TEXT/UTF8
Codec ID/Info : UTF-8 Plain Text
Duration : 1 h 45 min
Bit rate : 20 b/s
Frame rate : 0.089 FPS
Count of elements : 564
Stream size : 15.9 KiB (0%)
Language : Portuguese
Default : No
Forced : No

Text #32
ID : 34
Format : UTF-8
Codec ID : S_TEXT/UTF8
Codec ID/Info : UTF-8 Plain Text
Duration : 1 h 45 min
Bit rate : 19 b/s
Frame rate : 0.091 FPS
Count of elements : 576
Stream size : 14.9 KiB (0%)
Language : Croatian
Default : No
Forced : No

Text #33
ID : 35
Format : UTF-8
Codec ID : S_TEXT/UTF8
Codec ID/Info : UTF-8 Plain Text
Duration : 1 h 45 min
Bit rate : 27 b/s
Frame rate : 0.092 FPS
Count of elements : 584
Stream size : 21.0 KiB (0%)
Language : Hebrew
Default : No
Forced : No

Text #34
ID : 36
Format : UTF-8
Codec ID : S_TEXT/UTF8
Codec ID/Info : UTF-8 Plain Text
Duration : 1 h 45 min
Bit rate : 32 b/s
Frame rate : 0.092 FPS
Count of elements : 584
Stream size : 25.0 KiB (0%)
Language : Russian
Default : No
Forced : No

Text #35
ID : 37
Format : UTF-8
Codec ID : S_TEXT/UTF8
Codec ID/Info : UTF-8 Plain Text
Duration : 1 h 45 min
Bit rate : 20 b/s
Frame rate : 0.090 FPS
Count of elements : 572
Stream size : 15.7 KiB (0%)
Language : Romanian
Default : No
Forced : No

资源速度为零或资源敏感被和谐时,推荐使用qBittorrent等下载软件,有条件的推荐115更好的下载软件!

下载地址:

游客,如果您要查看本帖隐藏内容请回复





上一篇:布赖恩和查尔斯 / Brian and Charles (2022) 4K高清版本下载
下一篇:为了所有的女孩 [简繁中字] /I Am All Girls (2021) 4K高清版本下载
回复

使用道具 举报

4

主题

1342

帖子

4046

积分

4K家园VIP

Rank: 9Rank: 9Rank: 9

积分
4046
发表于 2022-8-30 21:37:20 | 显示全部楼层
我也是坐沙发的
回复 支持 反对

使用道具 举报

0

主题

8663

帖子

2万

积分

4K家园VIP

Rank: 9Rank: 9Rank: 9

积分
20189
发表于 2022-8-30 23:56:38 | 显示全部楼层
太好啦&萬分感謝版主的無私發佈分享%
回复 支持 反对

使用道具 举报

0

主题

19

帖子

390

积分

新手上路

Rank: 1

积分
390
发表于 2022-8-31 11:21:59 | 显示全部楼层
按小说来拍的吗
回复 支持 反对

使用道具 举报

0

主题

1319

帖子

3973

积分

4K家园VIP

Rank: 9Rank: 9Rank: 9

积分
3973
发表于 2022-9-2 23:50:10 | 显示全部楼层
顶起出售广告位
回复 支持 反对

使用道具 举报

5

主题

1651

帖子

4573

积分

中级会员

Rank: 4

积分
4573
发表于 2022-9-6 11:07:01 | 显示全部楼层
4K家园资源最近貌似越来越多了
回复 支持 反对

使用道具 举报

3

主题

1306

帖子

3936

积分

4K家园VIP

Rank: 9Rank: 9Rank: 9

积分
3936
发表于 2022-9-13 15:07:29 | 显示全部楼层
介是神马?!!
回复 支持 反对

使用道具 举报

2

主题

1338

帖子

3864

积分

4K家园VIP

Rank: 9Rank: 9Rank: 9

积分
3864
发表于 2022-9-20 10:02:08 | 显示全部楼层
为了三千积分!
回复 支持 反对

使用道具 举报

您需要登录后才可以回帖 登录 | 立即注册

本版积分规则

精彩图文
Archiver|手机版|TAG|Sitemap|新帖|专题|联系我们:邮箱: 4kjia.com@gmail.com   

4k家园   ©2019