[4K电影] 招魂 / The Conjuring (2013) 4K高清版本下载

[复制链接]

2333

主题

2482

帖子

1万

积分

超级版主

Rank: 8Rank: 8

积分
17982
 楼主| 发表于 2022-8-30 21:57:13 | 显示全部楼层 |阅读模式
本帖最后由 最爱4K哟 于 2022-9-8 19:57 编辑

QQ图片20220830214916_副本.png

◎标  题 招魂
◎译  名 诡屋惊凶实录(港) / 厉阴宅(台) / 古宅惊魂 / 灵术 / The Warren Files
◎片  名 The Conjuring
◎年  代 2013
◎产  地 美国
◎类  别 悬疑 / 惊悚 / 恐怖
◎语  言 英语 / 拉丁语
◎上映日期 2013-06-08(马德里奇幻电影节) / 2013-07-19(美国)
◎IMDb评分 7.5/10 from 499917 users 更新 : 2022-08-28
◎IMDb链接 https://www.imdb.com/title/tt1457767/
◎豆瓣评分 8.0/10 from 310928 users 更新 : 2022-08-30
◎豆瓣链接 https://movie.douban.com/subject/3804629/
◎片  长 112分钟
◎导  演 温子仁 James Wan
◎编  剧 查德·海斯 Chad Hayes /  凯利·海斯 Carey Hayes
◎演  员 维拉·法米加 Vera Farmiga
       帕特里克·威尔森 Patrick Wilson
       莉莉·泰勒 Lili Taylor
       朗·里维斯顿 Ron Livingston
       珊莉·卡斯韦尔 Shanley Caswell
       哈蕾·麦克法兰 Hayley McFarland
       乔伊·金 Joey King
       麦肯吉·弗依 Mackenzie Foy
       凯拉·迪弗 Kyla Deaver
       山农·库克 Shannon Kook
       约翰·布罗特顿 John Brotherton
       斯特林·杰里斯 Sterling Jerins
       玛丽恩·盖约特 Marion Guyot
       莫甘娜·布里吉尔斯 Morganna Bridgers
       艾米·蒂普顿 Amy Tipton
       玛琳·麦考米克 Maureen McCormick
       伊芙·普拉姆 Eve Plumb
       约瑟夫·比沙拉 Joseph Bishara
       Desi Domo Desi Domo
       扎克·帕帕斯 Zach Pappas
       考特妮·莱金 Courtney Lakin
       阿什利·怀特 Ashley White
       约瑟夫·比沙拉 Joseph Bishara
       约翰·R·莱昂耐迪 John R. Leonetti
       朱莉·贝格霍夫 Julie Berghoff
       Kristin M. Burke Kristin M. Burke
       洛林·沃伦 Lorraine Warren


◎简  介


  20世纪七十年代,罗杰(朗·里维斯顿 Ron Livingston 饰)与卡罗琳(莉莉·泰勒 Lili Taylor 饰)两夫妇带着他们五个可爱美丽的女儿,搬到了位于罗德岛哈瑞斯维尔的一幢旧宅居住。房屋虽然古旧沧桑,历史悠久,但是却让佩隆一家体会到回归田园的快乐与喜悦。谁知好景不长,接二连三的怪异事件相继出现,令女孩们惊声尖叫,也让佩隆夫妇的神经绷到极点。为此,他们辗转找到当时最负盛名的沃伦夫妇。
丈夫埃德(帕特里克·威尔森 Patrick Wilson 饰)是天主教会唯一认可的驱魔师,妻子洛琳(维拉·法米加 Vera Farmiga 饰)则拥有窥见灵体的能力。他们不费吹灰之力便确定这座阴气十足的大房子的症结所在,而为了征得教会除灵的许可,他们必须深入期间搜集恶灵存在的证据……
Video
ID : 1
Format : HEVC
Format/Info : High Efficiency Video Coding
Format profile : Main 10@L5@High
Codec ID : V_MPEGH/ISO/HEVC
Duration : 1 h 51 min
Bit rate : 24.3 Mb/s
Width : 3 840 pixels
Height : 2 160 pixels
Display aspect ratio : 16:9
Frame rate mode : Constant
Frame rate : 23.976 (24000/1001) FPS
Color space : YUV
Chroma subsampling : 4:2:0 (Type 2)
Bit depth : 10 bits
Bits/(Pixel*Frame) : 0.122
Stream size : 19.0 GiB (85%)
Default : No
Forced : No
Color range : Limited
Color primaries : BT.709
Transfer characteristics : BT.709
Matrix coefficients : BT.709

Audio #1
ID : 2
Format : DTS XLL
Format/Info : Digital Theater Systems
Commercial name : DTS-HD Master Audio
Codec ID : A_DTS
Duration : 1 h 51 min
Bit rate mode : Variable
Bit rate : 3 546 kb/s
Channel(s) : 6 channels
Channel layout : C L R Ls Rs LFE
Sampling rate : 48.0 kHz
Frame rate : 93.750 FPS (512 SPF)
Bit depth : 24 bits
Compression mode : Lossless
Delay relative to video : 6 ms
Stream size : 2.77 GiB (12%)
Title : DTS-HD MA 5.1
Language : English
Default : Yes
Forced : No

Audio #2
ID : 3
Format : AC-3
Format/Info : Audio Coding 3
Commercial name : Dolby Digital
Codec ID : A_AC3
Duration : 1 h 51 min
Bit rate mode : Constant
Bit rate : 640 kb/s
Channel(s) : 6 channels
Channel layout : L R C LFE Ls Rs
Sampling rate : 48.0 kHz
Frame rate : 31.250 FPS (1536 SPF)
Compression mode : Lossy
Stream size : 512 MiB (2%)
Title : DD 5.1
Language : English
Service kind : Complete Main
Default : No
Forced : No

Text #1
ID : 4
Format : UTF-8
Codec ID : S_TEXT/UTF8
Codec ID/Info : UTF-8 Plain Text
Duration : 1 h 44 min
Bit rate : 45 b/s
Frame rate : 0.207 FPS
Count of elements : 1303
Stream size : 34.8 KiB (0%)
Language : English
Default : Yes
Forced : No

Text #2
ID : 5
Format : UTF-8
Codec ID : S_TEXT/UTF8
Codec ID/Info : UTF-8 Plain Text
Duration : 1 h 46 min
Bit rate : 53 b/s
Frame rate : 0.253 FPS
Count of elements : 1625
Stream size : 41.5 KiB (0%)
Title : SDH
Language : English
Default : No
Forced : No

Menu
00:00:00.000 : en:00:00:00.000
00:08:52.069 : en:00:08:52.991
00:19:25.743 : en:00:19:26.665
00:29:14.832 : en:00:29:15.754
00:40:49.317 : en:00:40:50.239
00:51:05.808 : en:00:51:06.730
00:59:54.545 : en:00:59:55.467
01:10:36.228 : en:01:10:37.150
01:21:02.186 : en:01:21:03.108
01:28:58.370 : en:01:28:59.292
01:38:09.838 : en:01:38:10.760
01:46:07.440 : en:01:46:08.362

资源速度为零或资源敏感被和谐时,推荐使用qBittorrent等下载软件,有条件的推荐115更好的下载软件!

下载地址:

游客,如果您要查看本帖隐藏内容请回复

游客,如果您要查看本帖隐藏内容请回复

游客,如果您要查看本帖隐藏内容请回复

游客,如果您要查看本帖隐藏内容请回复




上一篇:大人物 [简繁中字] / Someone Great (2019) 4K高清版本下载
下一篇:监视资本主义:智能陷阱 [简繁中字] (2020) 4K高清版本下载
回复

使用道具 举报

51

主题

1543

帖子

4435

积分

4K家园VIP

Rank: 9Rank: 9Rank: 9

积分
4435
发表于 2022-8-30 21:57:17 来自手机 | 显示全部楼层
看帖要回,回帖才健康,在踩踩,楼主辛苦了!
回复 支持 反对

使用道具 举报

0

主题

1338

帖子

4042

积分

4K家园VIP

Rank: 9Rank: 9Rank: 9

积分
4042
发表于 2022-9-1 10:16:06 | 显示全部楼层
我也是坐沙发的
回复 支持 反对

使用道具 举报

50

主题

1519

帖子

4361

积分

4K家园VIP

Rank: 9Rank: 9Rank: 9

积分
4361
发表于 2022-9-1 16:13:50 | 显示全部楼层
感谢分享
回复 支持 反对

使用道具 举报

6

主题

1463

帖子

4235

积分

4K家园VIP

Rank: 9Rank: 9Rank: 9

积分
4235
发表于 2022-9-4 22:18:36 | 显示全部楼层
4K家园不错,希望这种资源越多越好
回复 支持 反对

使用道具 举报

0

主题

57

帖子

792

积分

新手上路

Rank: 1

积分
792
发表于 2022-9-5 23:04:21 | 显示全部楼层
看禁闻http://v.ht/tttd 点击访问
回复

使用道具 举报

3

主题

1359

帖子

4101

积分

4K家园VIP

Rank: 9Rank: 9Rank: 9

积分
4101
发表于 2022-9-6 15:19:07 | 显示全部楼层
怎么这么大,希望我电视能看啊
回复 支持 反对

使用道具 举报

0

主题

57

帖子

792

积分

新手上路

Rank: 1

积分
792
发表于 2022-9-8 21:59:18 | 显示全部楼层
看禁闻http://v.ht/tttd 点击访问
回复

使用道具 举报

您需要登录后才可以回帖 登录 | 立即注册

本版积分规则

精彩图文
Archiver|手机版|TAG|Sitemap|新帖|专题|联系我们:邮箱: 4kjia.com@gmail.com   

4k家园   ©2019