[4K电影] 监视资本主义:智能陷阱 [简繁中字] (2020) 4K高清版本下载

[复制链接]

2327

主题

2476

帖子

1万

积分

超级版主

Rank: 8Rank: 8

积分
17940
 楼主| 发表于 2022-8-30 22:10:26 | 显示全部楼层 |阅读模式

QQ图片20220830220851_副本.png

◎译  名 监视资本主义:智能陷阱/社交困境/愿者上网(港)/智能社会:进退两难(台)
◎片  名 The Social Dilemma
◎年  代 2020
◎产  地 美国
◎类  别 纪录片
◎语  言 英语
◎上映日期 2020-09-09(美国)
◎IMDb评分 7.6/10 from 81708 users 更新 : 2022-08-26
◎IMDb链接 https://www.imdb.com/title/tt11464826/
◎豆瓣评分 8.7/10 from 29398 users
◎豆瓣链接 https://douban.com/subject/34960008/
◎片  长 94分钟
◎导  演 杰夫·奥洛威斯基 Jeff Orlowski
◎编  剧 戴维斯·库姆贝 Davis Coombe / 维奇·柯蒂斯 Vickie Curtis / 杰夫·奥洛威斯基 Jeff Orlowski
◎主  演 杰伦·拉尼尔 Jaron Lanier
       罗杰·麦克纳米 Roger McNamee
       斯凯勒·吉桑多 Skyler Gisondo
       卡拉·海沃德 Kara Hayward
       文森特·卡塞瑟 Vincent Kartheiser
       马蒂·林赛 Marty Lindsey
       Ena Henderson Ena Henderson
       Chase Penny Chase Penny


◎简  介


  我们发推文、点赞、分享 — 但日益依赖社交媒体会带来什么后果?随着数字平台日益成为人们保持联系的重要方式,硅谷内部人士通过暴露屏幕另一侧的隐藏内容,揭示了社交媒体如何重新改写文明。


◎获奖情况

  第74届英国电影学院奖  (2021)
  电影奖最佳纪录片(提名)

  第73届黄金时段艾美奖  (2021)
  最佳纪录/非虚构节目(提名)

  第71届美国剪辑工会奖  (2021)
  纪录片最佳剪辑(提名)

  第68届美国音效剪辑协会奖  (2021)
  金卷轴奖最佳纪录片音效剪辑(提名)

  第57届美国声音效果协会奖  (2021)
  纪录片最佳音效(提名)

  第33届芝加哥影评人协会奖  (2020)
  最佳纪录片(提名)

Video
ID : 1
Format : HEVC
Format/Info : High Efficiency Video Coding
Format profile : Main 10@L5@Main
Codec ID : V_MPEGH/ISO/HEVC
Duration : 1 h 34 min
Bit rate : 11.6 Mb/s
Width : 3 840 pixels
Height : 2 160 pixels
Display aspect ratio : 16:9
Frame rate mode : Constant
Frame rate : 23.976 (24000/1001) FPS
Color space : YUV
Chroma subsampling : 4:2:0
Bit depth : 10 bits
Bits/(Pixel*Frame) : 0.058
Stream size : 7.67 GiB (95%)
Default : No
Forced : No
Color range : Limited
Color primaries : BT.709
Transfer characteristics : BT.709
Matrix coefficients : BT.709

Audio
ID : 2
Format : E-AC-3
Format/Info : Enhanced AC-3
Commercial name : Dolby Digital Plus
Codec ID : A_EAC3
Duration : 1 h 34 min
Bit rate mode : Constant
Bit rate : 640 kb/s
Channel(s) : 6 channels
Channel layout : L R C LFE Ls Rs
Sampling rate : 48.0 kHz
Frame rate : 31.250 FPS (1536 SPF)
Compression mode : Lossy
Stream size : 434 MiB (5%)
Language : English
Service kind : Complete Main
Default : No
Forced : No

Text #1
ID : 3
Format : UTF-8
Codec ID : S_TEXT/UTF8
Codec ID/Info : UTF-8 Plain Text
Duration : 1 h 32 min
Bit rate : 106 b/s
Frame rate : 0.285 FPS
Count of elements : 1585
Stream size : 72.6 KiB (0%)
Language : English
Default : No
Forced : No

Text #2
ID : 4
Format : UTF-8
Codec ID : S_TEXT/UTF8
Codec ID/Info : UTF-8 Plain Text
Duration : 1 h 33 min
Bit rate : 115 b/s
Frame rate : 0.305 FPS
Count of elements : 1707
Stream size : 79.0 KiB (0%)
Title : SDH
Language : English
Default : No
Forced : No

Text #3
ID : 5
Format : UTF-8
Codec ID : S_TEXT/UTF8
Codec ID/Info : UTF-8 Plain Text
Duration : 1 h 33 min
Bit rate : 151 b/s
Frame rate : 0.274 FPS
Count of elements : 1531
Stream size : 103 KiB (0%)
Language : Ukrainian
Default : No
Forced : No

Text #4
ID : 6
Format : UTF-8
Codec ID : S_TEXT/UTF8
Codec ID/Info : UTF-8 Plain Text
Duration : 1 h 33 min
Bit rate : 93 b/s
Frame rate : 0.262 FPS
Count of elements : 1465
Stream size : 64.1 KiB (0%)
Language : German
Default : No
Forced : No

Text #5
ID : 7
Format : UTF-8
Codec ID : S_TEXT/UTF8
Codec ID/Info : UTF-8 Plain Text
Duration : 1 h 32 min
Bit rate : 246 b/s
Frame rate : 0.276 FPS
Count of elements : 1537
Stream size : 167 KiB (0%)
Language : Thai
Default : No
Forced : No

Text #6
ID : 8
Format : UTF-8
Codec ID : S_TEXT/UTF8
Codec ID/Info : UTF-8 Plain Text
Duration : 1 h 33 min
Bit rate : 89 b/s
Frame rate : 0.276 FPS
Count of elements : 1541
Stream size : 61.1 KiB (0%)
Title : European
Language : Spanish
Default : No
Forced : No

Text #7
ID : 9
Format : UTF-8
Codec ID : S_TEXT/UTF8
Codec ID/Info : UTF-8 Plain Text
Duration : 1 h 33 min
Bit rate : 103 b/s
Frame rate : 0.287 FPS
Count of elements : 1606
Stream size : 70.7 KiB (0%)
Language : Malay
Default : No
Forced : No

Text #8
ID : 10
Format : UTF-8
Codec ID : S_TEXT/UTF8
Codec ID/Info : UTF-8 Plain Text
Duration : 1 h 33 min
Bit rate : 126 b/s
Frame rate : 0.280 FPS
Count of elements : 1562
Stream size : 86.3 KiB (0%)
Language : Vietnamese
Default : No
Forced : No

Text #9
ID : 11
Format : UTF-8
Codec ID : S_TEXT/UTF8
Codec ID/Info : UTF-8 Plain Text
Duration : 1 h 33 min
Bit rate : 100 b/s
Frame rate : 0.289 FPS
Count of elements : 1614
Stream size : 68.9 KiB (0%)
Language : Danish
Default : No
Forced : No

Text #10
ID : 12
Format : UTF-8
Codec ID : S_TEXT/UTF8
Codec ID/Info : UTF-8 Plain Text
Duration : 1 h 33 min
Bit rate : 89 b/s
Frame rate : 0.277 FPS
Count of elements : 1550
Stream size : 61.3 KiB (0%)
Language : Polish
Default : No
Forced : No

Text #11
ID : 13
Format : UTF-8
Codec ID : S_TEXT/UTF8
Codec ID/Info : UTF-8 Plain Text
Duration : 1 h 33 min
Bit rate : 116 b/s
Frame rate : 0.303 FPS
Count of elements : 1696
Stream size : 79.6 KiB (0%)
Language : Japanese
Default : No
Forced : No

Text #12
ID : 14
Format : UTF-8
Codec ID : S_TEXT/UTF8
Codec ID/Info : UTF-8 Plain Text
Duration : 1 h 33 min
Bit rate : 99 b/s
Frame rate : 0.264 FPS
Count of elements : 1475
Stream size : 67.8 KiB (0%)
Language : Italian
Default : No
Forced : No

Text #13
ID : 15
Format : UTF-8
Codec ID : S_TEXT/UTF8
Codec ID/Info : UTF-8 Plain Text
Duration : 1 h 33 min
Bit rate : 110 b/s
Frame rate : 0.290 FPS
Count of elements : 1621
Stream size : 75.5 KiB (0%)
Language : Korean
Default : No
Forced : No

Text #14
ID : 16
Format : UTF-8
Codec ID : S_TEXT/UTF8
Codec ID/Info : UTF-8 Plain Text
Duration : 1 h 33 min
Bit rate : 156 b/s
Frame rate : 0.286 FPS
Count of elements : 1601
Stream size : 106 KiB (0%)
Language : Arabic
Default : No
Forced : No

Text #15
ID : 17
Format : UTF-8
Codec ID : S_TEXT/UTF8
Codec ID/Info : UTF-8 Plain Text
Duration : 1 h 33 min
Bit rate : 90 b/s
Frame rate : 0.268 FPS
Count of elements : 1498
Stream size : 61.7 KiB (0%)
Language : Dutch
Default : No
Forced : No

Text #16
ID : 18
Format : UTF-8
Codec ID : S_TEXT/UTF8
Codec ID/Info : UTF-8 Plain Text
Duration : 1 h 33 min
Bit rate : 92 b/s
Frame rate : 0.289 FPS
Count of elements : 1615
Stream size : 63.0 KiB (0%)
Title : 中文(简体)
Language : 中文
Default : No
Forced : No


Text #17
ID : 19
Format : UTF-8
Codec ID : S_TEXT/UTF8
Codec ID/Info : UTF-8 Plain Text
Duration : 1 h 33 min
Bit rate : 98 b/s
Frame rate : 0.289 FPS
Count of elements : 1615
Stream size : 67.2 KiB (0%)
Language : Spanish
Default : No
Forced : No

Text #18
ID : 20
Format : UTF-8
Codec ID : S_TEXT/UTF8
Codec ID/Info : UTF-8 Plain Text
Duration : 1 h 33 min
Bit rate : 84 b/s
Frame rate : 0.288 FPS
Count of elements : 1609
Stream size : 57.7 KiB (0%)
Title : 中文(繁体)
Language : 中文
Default : No
Forced : No


Text #19
ID : 21
Format : UTF-8
Codec ID : S_TEXT/UTF8
Codec ID/Info : UTF-8 Plain Text
Duration : 1 h 33 min
Bit rate : 99 b/s
Frame rate : 0.268 FPS
Count of elements : 1500
Stream size : 67.9 KiB (0%)
Language : Swedish
Default : No
Forced : No

Text #20
ID : 22
Format : UTF-8
Codec ID : S_TEXT/UTF8
Codec ID/Info : UTF-8 Plain Text
Duration : 1 h 33 min
Bit rate : 96 b/s
Frame rate : 0.286 FPS
Count of elements : 1597
Stream size : 66.0 KiB (0%)
Language : Norwegian Bokmal
Default : No
Forced : No

Text #21
ID : 23
Format : UTF-8
Codec ID : S_TEXT/UTF8
Codec ID/Info : UTF-8 Plain Text
Duration : 1 h 33 min
Bit rate : 249 b/s
Frame rate : 0.300 FPS
Count of elements : 1674
Stream size : 170 KiB (0%)
Language : Hindi
Default : No
Forced : No

Text #22
ID : 24
Format : UTF-8
Codec ID : S_TEXT/UTF8
Codec ID/Info : UTF-8 Plain Text
Duration : 1 h 33 min
Bit rate : 101 b/s
Frame rate : 0.289 FPS
Count of elements : 1618
Stream size : 69.6 KiB (0%)
Language : French
Default : No
Forced : No

Text #23
ID : 25
Format : UTF-8
Codec ID : S_TEXT/UTF8
Codec ID/Info : UTF-8 Plain Text
Duration : 1 h 33 min
Bit rate : 99 b/s
Frame rate : 0.250 FPS
Count of elements : 1400
Stream size : 68.1 KiB (0%)
Language : Czech
Default : No
Forced : No

Text #24
ID : 26
Format : UTF-8
Codec ID : S_TEXT/UTF8
Codec ID/Info : UTF-8 Plain Text
Duration : 1 h 33 min
Bit rate : 99 b/s
Frame rate : 0.273 FPS
Count of elements : 1526
Stream size : 68.2 KiB (0%)
Title : Brazilian
Language : Portuguese
Default : No
Forced : No

Text #25
ID : 27
Format : UTF-8
Codec ID : S_TEXT/UTF8
Codec ID/Info : UTF-8 Plain Text
Duration : 1 h 33 min
Bit rate : 103 b/s
Frame rate : 0.286 FPS
Count of elements : 1599
Stream size : 70.5 KiB (0%)
Language : Indonesian
Default : No
Forced : No

Text #26
ID : 28
Format : UTF-8
Codec ID : S_TEXT/UTF8
Codec ID/Info : UTF-8 Plain Text
Duration : 1 h 33 min
Bit rate : 90 b/s
Frame rate : 0.241 FPS
Count of elements : 1345
Stream size : 62.0 KiB (0%)
Language : Finnish
Default : No
Forced : No

Text #27
ID : 29
Format : UTF-8
Codec ID : S_TEXT/UTF8
Codec ID/Info : UTF-8 Plain Text
Duration : 1 h 33 min
Bit rate : 100 b/s
Frame rate : 0.289 FPS
Count of elements : 1613
Stream size : 68.6 KiB (0%)
Language : Hungarian
Default : No
Forced : No

Text #28
ID : 30
Format : UTF-8
Codec ID : S_TEXT/UTF8
Codec ID/Info : UTF-8 Plain Text
Duration : 1 h 33 min
Bit rate : 162 b/s
Frame rate : 0.290 FPS
Count of elements : 1617
Stream size : 111 KiB (0%)
Language : Greek
Default : No
Forced : No

Text #29
ID : 31
Format : UTF-8
Codec ID : S_TEXT/UTF8
Codec ID/Info : UTF-8 Plain Text
Duration : 1 h 33 min
Bit rate : 95 b/s
Frame rate : 0.264 FPS
Count of elements : 1476
Stream size : 65.3 KiB (0%)
Language : Turkish
Default : No
Forced : No

Text #30
ID : 32
Format : UTF-8
Codec ID : S_TEXT/UTF8
Codec ID/Info : UTF-8 Plain Text
Duration : 1 h 33 min
Bit rate : 81 b/s
Frame rate : 0.262 FPS
Count of elements : 1463
Stream size : 55.8 KiB (0%)
Language : Croatian
Default : No
Forced : No

Text #31
ID : 33
Format : UTF-8
Codec ID : S_TEXT/UTF8
Codec ID/Info : UTF-8 Plain Text
Duration : 1 h 33 min
Bit rate : 106 b/s
Frame rate : 0.283 FPS
Count of elements : 1579
Stream size : 72.3 KiB (0%)
Language : Portuguese
Default : No
Forced : No

Text #32
ID : 34
Format : UTF-8
Codec ID : S_TEXT/UTF8
Codec ID/Info : UTF-8 Plain Text
Duration : 1 h 33 min
Bit rate : 132 b/s
Frame rate : 0.287 FPS
Count of elements : 1603
Stream size : 90.1 KiB (0%)
Language : Hebrew
Default : No
Forced : No

Text #33
ID : 35
Format : UTF-8
Codec ID : S_TEXT/UTF8
Codec ID/Info : UTF-8 Plain Text
Duration : 1 h 33 min
Bit rate : 176 b/s
Frame rate : 0.285 FPS
Count of elements : 1592
Stream size : 120 KiB (0%)
Language : Russian
Default : No
Forced : No

Text #34
ID : 36
Format : UTF-8
Codec ID : S_TEXT/UTF8
Codec ID/Info : UTF-8 Plain Text
Duration : 1 h 33 min
Bit rate : 95 b/s
Frame rate : 0.261 FPS
Count of elements : 1461
Stream size : 65.2 KiB (0%)
Language : Romanian
Default : No
Forced : No
资源速度为零或资源敏感被和谐时,推荐使用qBittorrent等下载软件,有条件的推荐115更好的下载软件!

下载地址:


游客,如果您要查看本帖隐藏内容请回复






上一篇:招魂 / The Conjuring (2013) 4K高清版本下载
下一篇:探险者 / Explorer (2022) 4K高清版本下载
回复

使用道具 举报

56

主题

1542

帖子

4482

积分

4K家园VIP

Rank: 9Rank: 9Rank: 9

积分
4482
发表于 2022-8-30 22:10:33 | 显示全部楼层
有4K版卡,下个看下
回复 支持 反对

使用道具 举报

0

主题

8663

帖子

2万

积分

4K家园VIP

Rank: 9Rank: 9Rank: 9

积分
20189
发表于 2022-8-30 23:57:49 | 显示全部楼层
太好啦&萬分感謝版主的無私發佈分享%
回复 支持 反对

使用道具 举报

0

主题

1392

帖子

4192

积分

4K家园VIP

Rank: 9Rank: 9Rank: 9

积分
4192
发表于 2022-8-31 11:23:57 | 显示全部楼层
前排支持下
回复 支持 反对

使用道具 举报

0

主题

475

帖子

2895

积分

注册会员

Rank: 2

积分
2895
发表于 2022-8-31 12:24:29 | 显示全部楼层
谢谢楼主分享
回复 支持 反对

使用道具 举报

3

主题

1306

帖子

3936

积分

4K家园VIP

Rank: 9Rank: 9Rank: 9

积分
3936
发表于 2022-9-2 15:28:41 | 显示全部楼层
报告!别开枪,我就是路过来看看的。。。
回复 支持 反对

使用道具 举报

51

主题

1526

帖子

4398

积分

4K家园VIP

Rank: 9Rank: 9Rank: 9

积分
4398
发表于 2022-9-2 17:44:08 | 显示全部楼层
占位编辑
回复 支持 反对

使用道具 举报

50

主题

1500

帖子

4272

积分

4K家园VIP

Rank: 9Rank: 9Rank: 9

积分
4272
发表于 2022-9-3 09:15:34 | 显示全部楼层
楼猪辛苦了,支持一下分享好资源
回复 支持 反对

使用道具 举报

您需要登录后才可以回帖 登录 | 立即注册

本版积分规则

精彩图文
Archiver|手机版|TAG|Sitemap|新帖|专题|联系我们:邮箱: 4kjia.com@gmail.com   

4k家园   ©2019