[4K电影] 人生七部曲 / The Meaning of Life (1983) 4K高清版本下载

[复制链接]

2327

主题

2476

帖子

1万

积分

超级版主

Rank: 8Rank: 8

积分
17940
 楼主| 发表于 2022-9-1 10:21:36 | 显示全部楼层 |阅读模式
QQ图片20220901101500_副本.png

◎译  名 人生七部曲/脱线一箩筐(台)/万世魔星:生命的意义/Monty Python's The Meaning of Life
◎片  名 The Meaning of Life
◎年  代 1983
◎产  地 英国
◎类  别 喜剧/歌舞
◎语  言 英语
◎上映日期 1983-07-07(英国)
◎IMDb评分 7.5/10 from 119773 users 更新 : 2022-09-01
◎IMDb链接 https://www.imdb.com/title/tt0085959/
◎豆瓣评分 8.3/10 from 7735 users 更新 : 2022-09-01
◎豆瓣链接 https://movie.douban.com/subject/1293175/
◎导  演 特瑞·琼斯 Terry Jones / 特瑞·吉列姆 Terry Gilliam
◎编  剧 格雷厄姆·查普曼 Graham Chapman / 约翰·克里斯 John Cleese / 特瑞·吉列姆 Terry Gilliam / 艾瑞克·爱都 Eric Idle / 特瑞·琼斯 Terry Jones / 迈克尔·帕林 Michael Palin
◎主  演 格雷厄姆·查普曼 Graham Chapman
       约翰·克里斯 John Cleese
       特瑞·吉列姆 Terry Gilliam
       艾瑞克·爱都 Eric Idle
       特瑞·琼斯 Terry Jones
       迈克尔·帕林 Michael Palin
       卡萝尔·克力夫兰 Carol Cleveland
       西蒙·琼斯 Simon Jones
       帕特里夏·奎因 Patricia Quinn
       朱蒂·罗 Judy Loe
       George Silver George Silver
       Sydney Arnold Sydney Arnold
       安德鲁·比克内尔 Andrew Bicknell
       Ross Davidson Ross Davidson
       Myrtle Devenish Myrtle Devenish
       Eric Francis Eric Francis
       马特·弗里沃 Matt Frewer
       Len Marten Len Marten
       Cameron Miller Cameron Miller
       Larry Noble Larry Noble
       Leslie Sarony Leslie Sarony
       约翰·斯科特·马丁 John Scott Martin
       简·丽芙丝 Jane Leeves
       迈克尔·凯恩 Michael Caine
       Reg Thomason Reg Thomason


◎简  介


  关于宗教的故事——失业的天主教徒唱着“每颗精子都是神圣的”,把一屋四五十个孩子送去做医学实验,因为再也负担不起他们,而对门的新教夫妇一面幸灾乐祸,一面感叹自己“只性交两次,有两个孩子”;关于性的故事——教授在课堂上向学生讲解“性”是什么,但是学生总不得要领,无奈之下,教授把自己太太拉过来当堂向学生示范;关于死亡的故事——死神来到一个农舍,声言要带走所有人,但这里聚集了许多美国朋友,不但毫不在意,还热情地邀请他喝酒聊天,让死神忍无可忍……人生七部曲,七个沉重的话题却放入足够荒诞的故事,嬉笑怒骂讽刺世间百态。

Video
ID : 1
Format : HEVC
Format/Info : High Efficiency Video Coding
Format profile : Main 10@L5@High
HDR format : SMPTE ST 2086, HDR10 compatible
Codec ID : V_MPEGH/ISO/HEVC
Duration : 1 h 47 min
Bit rate : 24.9 Mb/s
Width : 3 834 pixels
Height : 2 072 pixels
Display aspect ratio : 1.85:1
Frame rate mode : Constant
Frame rate : 23.976 FPS
Color space : YUV
Chroma subsampling : 4:2:0 (Type 2)
Bit depth : 10 bits
Bits/(Pixel*Frame) : 0.131
Stream size : 18.6 GiB (83%)
Language : English
Default : Yes
Forced : No
Color range : Limited
Color primaries : BT.2020
Transfer characteristics : PQ
Matrix coefficients : BT.2020 non-constant
Mastering display color primaries : Display P3
Mastering display luminance : min: 0.0050 cd/m2, max: 1000 cd/m2
Maximum Content Light Level : 1000 cd/m2
Maximum Frame-Average Light Level : 301 cd/m2

Audio #1
ID : 2
Format : DTS XLL
Format/Info : Digital Theater Systems
Commercial name : DTS-HD Master Audio
Codec ID : A_DTS
Duration : 1 h 47 min
Bit rate mode : Variable
Bit rate : 4 210 kb/s
Channel(s) : 6 channels
Channel layout : C L R Ls Rs LFE
Sampling rate : 48.0 kHz
Frame rate : 93.750 FPS (512 SPF)
Bit depth : 24 bits
Compression mode : Lossless
Delay relative to video : 1 s 43 ms
Stream size : 3.15 GiB (14%)
Title : DTS-HD Master Audio / 5.1 / 48 kHz / 4210 kbps / 24-bit
Language : English
Default : Yes
Forced : No

Audio #2
ID : 3
Format : AC-3
Format/Info : Audio Coding 3
Commercial name : Dolby Digital
Codec ID : A_AC3
Duration : 1 h 47 min
Bit rate mode : Constant
Bit rate : 640 kb/s
Channel(s) : 6 channels
Channel layout : L R C LFE Ls Rs
Sampling rate : 48.0 kHz
Frame rate : 31.250 FPS (1536 SPF)
Compression mode : Lossy
Stream size : 490 MiB (2%)
Title : DD 5.1
Language : English
Service kind : Complete Main
Default : No
Forced : No

Audio #3
ID : 4
Format : AC-3
Format/Info : Audio Coding 3
Commercial name : Dolby Digital
Format settings : Dolby Surround
Codec ID : A_AC3
Duration : 1 h 47 min
Bit rate mode : Constant
Bit rate : 192 kb/s
Channel(s) : 2 channels
Channel layout : L R
Sampling rate : 48.0 kHz
Frame rate : 31.250 FPS (1536 SPF)
Compression mode : Lossy
Delay relative to video : 1 s 43 ms
Stream size : 147 MiB (1%)
Title : Commentary by co-directors Terry Gilliam and Terry Jones / Dolby Digital Audio / 2.0 / 48 kHz / 192 kbps
Language : English
Service kind : Complete Main
Default : No
Forced : No

Audio #4
ID : 5
Format : AC-3
Format/Info : Audio Coding 3
Commercial name : Dolby Digital
Format settings : Dolby Surround
Codec ID : A_AC3
Duration : 1 h 47 min
Bit rate mode : Constant
Bit rate : 192 kb/s
Channel(s) : 2 channels
Channel layout : L R
Sampling rate : 48.0 kHz
Frame rate : 31.250 FPS (1536 SPF)
Compression mode : Lossy
Delay relative to video : 1 s 43 ms
Stream size : 147 MiB (1%)
Title : Soundtrack for the Lonely / Dolby Digital Audio / 2.0 / 48 kHz / 192 kbps
Language : English
Service kind : Complete Main
Default : No
Forced : No

Text #1
ID : 6
Format : UTF-8
Codec ID : S_TEXT/UTF8
Codec ID/Info : UTF-8 Plain Text
Duration : 1 h 46 min
Bit rate : 69 b/s
Frame rate : 0.222 FPS
Count of elements : 1410
Stream size : 54.3 KiB (0%)
Language : English
Default : No
Forced : No

Text #2
ID : 7
Format : UTF-8
Codec ID : S_TEXT/UTF8
Codec ID/Info : UTF-8 Plain Text
Duration : 1 h 46 min
Bit rate : 73 b/s
Frame rate : 0.241 FPS
Count of elements : 1535
Stream size : 56.9 KiB (0%)
Title : SDH
Language : English
Default : No
Forced : No

Text #3
ID : 8
Format : UTF-8
Codec ID : S_TEXT/UTF8
Codec ID/Info : UTF-8 Plain Text
Duration : 1 h 46 min
Bit rate : 102 b/s
Frame rate : 0.203 FPS
Count of elements : 1305
Stream size : 79.9 KiB (0%)
Language : Arabic
Default : No
Forced : No

Text #4
ID : 9
Format : UTF-8
Codec ID : S_TEXT/UTF8
Codec ID/Info : UTF-8 Plain Text
Duration : 1 h 46 min
Bit rate : 94 b/s
Frame rate : 0.201 FPS
Count of elements : 1291
Stream size : 74.4 KiB (0%)
Language : Bulgarian
Default : No
Forced : No

Text #5
ID : 10
Format : UTF-8
Codec ID : S_TEXT/UTF8
Codec ID/Info : UTF-8 Plain Text
Duration : 1 h 46 min
Bit rate : 58 b/s
Frame rate : 0.202 FPS
Count of elements : 1294
Stream size : 45.7 KiB (0%)
Language : Czech
Default : No
Forced : No

Text #6
ID : 11
Format : UTF-8
Codec ID : S_TEXT/UTF8
Codec ID/Info : UTF-8 Plain Text
Duration : 1 h 46 min
Bit rate : 60 b/s
Frame rate : 0.202 FPS
Count of elements : 1293
Stream size : 47.5 KiB (0%)
Language : Danish
Default : No
Forced : No

Text #7
ID : 12
Format : UTF-8
Codec ID : S_TEXT/UTF8
Codec ID/Info : UTF-8 Plain Text
Duration : 1 h 46 min
Bit rate : 66 b/s
Frame rate : 0.202 FPS
Count of elements : 1296
Stream size : 51.9 KiB (0%)
Language : German
Default : No
Forced : No

Text #8
ID : 13
Format : UTF-8
Codec ID : S_TEXT/UTF8
Codec ID/Info : UTF-8 Plain Text
Duration : 1 h 46 min
Bit rate : 109 b/s
Frame rate : 0.203 FPS
Count of elements : 1302
Stream size : 85.5 KiB (0%)
Language : Greek
Default : No
Forced : No

Text #9
ID : 14
Format : UTF-8
Codec ID : S_TEXT/UTF8
Codec ID/Info : UTF-8 Plain Text
Duration : 1 h 46 min
Bit rate : 63 b/s
Frame rate : 0.203 FPS
Count of elements : 1300
Stream size : 49.6 KiB (0%)
Language : Spanish
Default : No
Forced : No

Text #10
ID : 15
Format : UTF-8
Codec ID : S_TEXT/UTF8
Codec ID/Info : UTF-8 Plain Text
Duration : 1 h 46 min
Bit rate : 65 b/s
Frame rate : 0.200 FPS
Count of elements : 1284
Stream size : 51.4 KiB (0%)
Title : Latin American
Language : Spanish
Default : No
Forced : No

Text #11
ID : 16
Format : UTF-8
Codec ID : S_TEXT/UTF8
Codec ID/Info : UTF-8 Plain Text
Duration : 1 h 46 min
Bit rate : 60 b/s
Frame rate : 0.202 FPS
Count of elements : 1296
Stream size : 47.3 KiB (0%)
Language : Finnish
Default : No
Forced : No

Text #12
ID : 17
Format : UTF-8
Codec ID : S_TEXT/UTF8
Codec ID/Info : UTF-8 Plain Text
Duration : 1 h 46 min
Bit rate : 62 b/s
Frame rate : 0.200 FPS
Count of elements : 1285
Stream size : 49.1 KiB (0%)
Language : French
Default : No
Forced : No

Text #13
ID : 18
Format : UTF-8
Codec ID : S_TEXT/UTF8
Codec ID/Info : UTF-8 Plain Text
Duration : 1 h 46 min
Bit rate : 67 b/s
Frame rate : 0.204 FPS
Count of elements : 1311
Stream size : 53.1 KiB (0%)
Title : Canadian
Language : French
Default : No
Forced : No

Text #14
ID : 19
Format : UTF-8
Codec ID : S_TEXT/UTF8
Codec ID/Info : UTF-8 Plain Text
Duration : 1 h 46 min
Bit rate : 94 b/s
Frame rate : 0.202 FPS
Count of elements : 1293
Stream size : 74.0 KiB (0%)
Language : Hebrew
Default : No
Forced : No

Text #15
ID : 20
Format : UTF-8
Codec ID : S_TEXT/UTF8
Codec ID/Info : UTF-8 Plain Text
Duration : 1 h 46 min
Bit rate : 59 b/s
Frame rate : 0.201 FPS
Count of elements : 1290
Stream size : 46.6 KiB (0%)
Language : Hungarian
Default : No
Forced : No

Text #16
ID : 21
Format : UTF-8
Codec ID : S_TEXT/UTF8
Codec ID/Info : UTF-8 Plain Text
Duration : 1 h 46 min
Bit rate : 60 b/s
Frame rate : 0.202 FPS
Count of elements : 1295
Stream size : 47.5 KiB (0%)
Language : Italian
Default : No
Forced : No

Text #17
ID : 22
Format : UTF-8
Codec ID : S_TEXT/UTF8
Codec ID/Info : UTF-8 Plain Text
Duration : 1 h 46 min
Bit rate : 58 b/s
Frame rate : 0.200 FPS
Count of elements : 1284
Stream size : 45.5 KiB (0%)
Language : Dutch
Default : No
Forced : No

Text #18
ID : 23
Format : UTF-8
Codec ID : S_TEXT/UTF8
Codec ID/Info : UTF-8 Plain Text
Duration : 1 h 46 min
Bit rate : 60 b/s
Frame rate : 0.202 FPS
Count of elements : 1293
Stream size : 47.0 KiB (0%)
Language : Norwegian
Default : No
Forced : No

Text #19
ID : 24
Format : UTF-8
Codec ID : S_TEXT/UTF8
Codec ID/Info : UTF-8 Plain Text
Duration : 1 h 46 min
Bit rate : 58 b/s
Frame rate : 0.203 FPS
Count of elements : 1299
Stream size : 45.7 KiB (0%)
Language : Polish
Default : No
Forced : No

Text #20
ID : 25
Format : UTF-8
Codec ID : S_TEXT/UTF8
Codec ID/Info : UTF-8 Plain Text
Duration : 1 h 46 min
Bit rate : 61 b/s
Frame rate : 0.202 FPS
Count of elements : 1293
Stream size : 48.1 KiB (0%)
Language : Portuguese
Default : No
Forced : No

Text #21
ID : 26
Format : UTF-8
Codec ID : S_TEXT/UTF8
Codec ID/Info : UTF-8 Plain Text
Duration : 1 h 46 min
Bit rate : 104 b/s
Frame rate : 0.202 FPS
Count of elements : 1294
Stream size : 81.9 KiB (0%)
Language : Russian
Default : No
Forced : No

Text #22
ID : 27
Format : UTF-8
Codec ID : S_TEXT/UTF8
Codec ID/Info : UTF-8 Plain Text
Duration : 1 h 46 min
Bit rate : 54 b/s
Frame rate : 0.203 FPS
Count of elements : 1299
Stream size : 42.9 KiB (0%)
Language : Swedish
Default : No
Forced : No

Text #23
ID : 28
Format : UTF-8
Codec ID : S_TEXT/UTF8
Codec ID/Info : UTF-8 Plain Text
Duration : 1 h 46 min
Bit rate : 63 b/s
Frame rate : 0.201 FPS
Count of elements : 1292
Stream size : 50.1 KiB (0%)
Language : Turkish
Default : No
Forced : No

Menu
00:00:00.000 : en:The Crimson Permanent Assurance
00:16:31.000 : en:The Meaning of Life
00:20:19.000 : en:Birth
00:24:48.000 : en:Birth in the Third World
00:31:52.000 : en:The Protestant View
00:34:21.000 : en:Religious Education
00:37:18.000 : en:Sex Education
00:43:46.000 : enhysical Education
00:45:06.000 : en:Fighting Each Other
00:48:55.000 : en:Military Education
00:51:42.000 : en:Officers & Gentlemen
00:57:41.000 : en:A Tiger
01:01:24.000 : en:Find the Fish
01:03:44.000 : enhilosophy a la Carte
01:08:38.000 : en:The Liver Donor
01:11:15.000 : en:The Galaxy
01:15:18.000 : en:The Very Big Corporation of America
01:17:46.000 : en:Mr. Creosote: The Joy of Fat
01:24:39.000 : en:The Meaning of It All
01:29:42.000 : en:The Good Death Guide
01:31:41.000 : en:Autumn Leaves
01:32:43.000 : en:The Grim Reaper
01:39:55.000 : en:Stairway to Heaven
01:41:18.000 : en:Christmas in Heaven
01:43:33.000 : en:The End of the Film

资源速度为零或资源敏感被和谐时,推荐使用qBittorrent等下载软件,有条件的推荐115更好的下载软件!

下载地址:


游客,如果您要查看本帖隐藏内容请回复

游客,如果您要查看本帖隐藏内容请回复






上一篇:探险者 / Explorer (2022) 4K高清版本下载
下一篇:[4Kjia独享] 唯我独尊 [简繁中字] / Me Time (2022) 4K高清版本下载
回复

使用道具 举报

1

主题

1370

帖子

4138

积分

4K家园VIP

Rank: 9Rank: 9Rank: 9

积分
4138
发表于 2022-9-1 10:21:40 | 显示全部楼层
这么强,支持楼主,佩服
回复 支持 反对

使用道具 举报

0

主题

1337

帖子

4039

积分

4K家园VIP

Rank: 9Rank: 9Rank: 9

积分
4039
发表于 2022-9-1 10:21:40 来自手机 | 显示全部楼层
回个帖子,下班咯~
回复 支持 反对

使用道具 举报

3

主题

1409

帖子

4069

积分

4K家园VIP

Rank: 9Rank: 9Rank: 9

积分
4069
发表于 2022-9-1 10:34:55 | 显示全部楼层
顶起顶起顶起
回复 支持 反对

使用道具 举报

0

主题

8663

帖子

2万

积分

4K家园VIP

Rank: 9Rank: 9Rank: 9

积分
20189
发表于 2022-9-1 10:36:51 | 显示全部楼层
太好啦&萬分感謝版主的無私發佈分享%
回复 支持 反对

使用道具 举报

49

主题

1485

帖子

4281

积分

4K家园VIP

Rank: 9Rank: 9Rank: 9

积分
4281
发表于 2022-9-1 10:51:43 | 显示全部楼层
4K家园资源最近貌似越来越多了
回复 支持 反对

使用道具 举报

0

主题

475

帖子

2895

积分

注册会员

Rank: 2

积分
2895
发表于 2022-9-1 11:46:11 | 显示全部楼层
感謝版主的無私發佈
回复 支持 反对

使用道具 举报

3

主题

1388

帖子

4182

积分

4K家园VIP

Rank: 9Rank: 9Rank: 9

积分
4182
发表于 2022-9-1 12:09:10 来自手机 | 显示全部楼层
支持一下楼主,顶起来
回复 支持 反对

使用道具 举报

您需要登录后才可以回帖 登录 | 立即注册

本版积分规则

精彩图文
Archiver|手机版|TAG|Sitemap|新帖|专题|联系我们:邮箱: 4kjia.com@gmail.com   

4k家园   ©2019