[4K美女视频] 2019第10届台湾小姐泳装赛4号参赛者走秀 [2160/MP4/432MB]

[复制链接]

800

主题

883

帖子

5531

积分

超级版主

Rank: 8Rank: 8

积分
5531
 楼主| 发表于 2019-7-9 13:51:35 | 显示全部楼层 |阅读模式

2019第10届台湾小姐泳装赛4号参赛者走秀.mp4_20190708_125521.221.jpg 2019第10届台湾小姐泳装赛4号参赛者走秀.mp4_20190708_125559.759.jpg 2019第10届台湾小姐泳装赛4号参赛者走秀.mp4_20190708_125605.175.jpg 2019第10届台湾小姐泳装赛4号参赛者走秀.mp4_20190708_125612.847.jpg 2019第10届台湾小姐泳装赛4号参赛者走秀.mp4.jpg

General
Complete name                  : 4K视频\2019第10届台湾小姐泳装赛4号参赛者走秀.mp4
Format                         : MPEG-4
Format profile                 : Base Media
Codec ID                       : isom (isom/iso2/avc1/mp41)
File size                      : 433 MiB
Duration                       : 4 min 1 s
Overall bit rate               : 15.0 Mb/s
Writing application            : Lavf58.12.100

Video
ID                             : 1
Format                         : AVC
Format/Info                    : Advanced Video Codec
Format profile                 : [email protected]
Format settings                : CABAC / 4 Ref Frames
Format settings, CABAC         : Yes
Format settings, Reference fra : 4 frames
Codec ID                       : avc1
Codec ID/Info                  : Advanced Video Coding
Duration                       : 4 min 1 s
Bit rate                       : 15.0 Mb/s
Width                          : 3 836 pixels
Height                         : 1 928 pixels
Display aspect ratio           : 1.990
Frame rate mode                : Constant
Frame rate                     : 29.000 FPS
Color space                    : YUV
Chroma subsampling             : 4:2:0
Bit depth                      : 8 bits
Scan type                      : Progressive
Bits/(Pixel*Frame)             : 0.070
Stream size                    : 429 MiB (99%)
Writing library                : x264 core 148
Encoding settings              : cabac=1 / ref=3 / deblock=1:0:0 / analyse=0x3:0x113 / me=hex / subme=7 / psy=1 / psy_rd=1.00:0.00 / mixed_ref=1 / me_range=16 / chroma_me=1 / trellis=1 / 8x8dct=1 / cqm=0 / deadzone=21,11 / fast_pskip=1 / chroma_qp_offset=-2 / threads=6 / lookahead_threads=1 / sliced_threads=0 / nr=0 / decimate=1 / interlaced=0 / bluray_compat=0 / constrained_intra=0 / bframes=3 / b_pyramid=2 / b_adapt=1 / b_bias=0 / direct=1 / weightb=1 / open_gop=0 / weightp=2 / keyint=250 / keyint_min=25 / scenecut=40 / intra_refresh=0 / rc_lookahead=40 / rc=abr / mbtree=1 / bitrate=15000 / ratetol=1.0 / qcomp=0.60 / qpmin=0 / qpmax=69 / qpstep=4 / ip_ratio=1.40 / aq=1:1.00
Language                       : English
Codec configuration box        : avcC

Audio
ID                             : 2
Format                         : AAC LC
Format/Info                    : Advanced Audio Codec Low Complexity
Codec ID                       : mp4a-40-2
Duration                       : 4 min 1 s
Bit rate mode                  : Constant
Bit rate                       : 129 kb/s
Channel(s)                     : 2 channels
Channel layout                 : L R
Sampling rate                  : 44.1 kHz
Frame rate                     : 43.066 FPS (1024 SPF)
Compression mode               : Lossy
Stream size                    : 3.70 MiB (1%)
Language                       : English
Default                        : Yes
Alternate group                : 1



网盘下载失效不补:链接: https://pan.baidu.com/s/1lKs4OSR3FNcRJauj-0okSg
****此区域为收费内容****    需支付 15 金币后可查看立即购买

1.gif










上一篇:2019 韩国比基尼健美比赛现场实拍131 [2160/MP4/267MB]
下一篇:2019高尔夫秀韩国模特-03 [2160/MP4/361MB]
回复

使用道具 举报

0

主题

901

帖子

2721

积分

4K家园VIP

Rank: 9Rank: 9Rank: 9

积分
2721
发表于 2019-7-9 13:51:41 | 显示全部楼层
回复 支持 反对

使用道具 举报

0

主题

314

帖子

2080

积分

4K家园VIP

Rank: 9Rank: 9Rank: 9

积分
2080
QQ
发表于 2019-7-9 20:51:20 | 显示全部楼层
下载支持了!!
回复 支持 反对

使用道具 举报

0

主题

938

帖子

2666

积分

4K家园VIP

Rank: 9Rank: 9Rank: 9

积分
2666
发表于 2019-7-10 15:53:12 | 显示全部楼层
传说中的沙发???哇卡卡
回复 支持 反对

使用道具 举报

50

主题

1049

帖子

3013

积分

4K家园VIP

Rank: 9Rank: 9Rank: 9

积分
3013
发表于 7 天前 来自手机 | 显示全部楼层
我也来顶一下..
回复 支持 反对

使用道具 举报

0

主题

1248

帖子

3370

积分

4K家园VIP

Rank: 9Rank: 9Rank: 9

积分
3370
发表于 7 天前 | 显示全部楼层
感谢楼主的分享,还是阔以滴
回复 支持 反对

使用道具 举报

0

主题

939

帖子

2623

积分

4K家园VIP

Rank: 9Rank: 9Rank: 9

积分
2623
发表于 6 天前 来自手机 | 显示全部楼层
支持一下楼主发表的内容
回复 支持 反对

使用道具 举报

0

主题

81

帖子

248

积分

新手上路

Rank: 1

积分
248
发表于 6 天前 | 显示全部楼层

楼主太厉害了!楼主,I*老*虎*U!我觉得4K家园真是个好地方!
回复 支持 反对

使用道具 举报

您需要登录后才可以回帖 登录 | 立即注册

本版积分规则

精彩图文
关闭

站长推荐上一条 /2 下一条

4k家园   ©2019