[4K美女视频] 2019高尔夫秀韩国模特-03 [2160/MP4/361MB]

[复制链接]

800

主题

883

帖子

5549

积分

超级版主

Rank: 8Rank: 8

积分
5549
 楼主| 发表于 2019-7-9 13:51:50 | 显示全部楼层 |阅读模式

2019高尔夫秀韩国模特-03.mp4_20190708_125851.181.jpg 2019高尔夫秀韩国模特-03.mp4_20190708_125902.031.jpg 2019高尔夫秀韩国模特-03.mp4_20190708_125908.777.jpg 2019高尔夫秀韩国模特-03.mp4_20190708_125927.695.jpg 2019高尔夫秀韩国模特-03.mp4.jpg

General
Complete name                  : D:\360安全浏览器下载\4K视频\2019高尔夫秀韩国模特-03.mp4
Format                         : MPEG-4
Format profile                 : Base Media
Codec ID                       : isom (isom/iso2/avc1/mp41)
File size                      : 361 MiB
Duration                       : 3 min 13 s
Overall bit rate               : 15.7 Mb/s
Writing application            : EX1.5.0(C1.0.9)

Video
ID                             : 1
Format                         : AVC
Format/Info                    : Advanced Video Codec
Format profile                 : [email protected]
Format settings                : CABAC / 3 Ref Frames
Format settings, CABAC         : Yes
Format settings, Reference fra : 3 frames
Format settings, GOP           : M=3, N=60
Codec ID                       : avc1
Codec ID/Info                  : Advanced Video Coding
Duration                       : 3 min 13 s
Bit rate                       : 15.5 Mb/s
Width                          : 2 160 pixels
Height                         : 3 840 pixels
Display aspect ratio           : 0.563
Frame rate mode                : Constant
Frame rate                     : 29.970 (29970/1000) FPS
Color space                    : YUV
Chroma subsampling             : 4:2:0
Bit depth                      : 8 bits
Scan type                      : Progressive
Bits/(Pixel*Frame)             : 0.062
Stream size                    : 357 MiB (99%)
Codec configuration box        : avcC

Audio
ID                             : 2
Format                         : AAC LC
Format/Info                    : Advanced Audio Codec Low Complexity
Codec ID                       : mp4a-40-2
Duration                       : 3 min 13 s
Duration_LastFrame             : -17 ms
Bit rate mode                  : Constant
Bit rate                       : 192 kb/s
Channel(s)                     : 2 channels
Channel layout                 : L R
Sampling rate                  : 44.1 kHz
Frame rate                     : 43.066 FPS (1024 SPF)
Compression mode               : Lossy
Stream size                    : 4.42 MiB (1%)
Default                        : Yes
Alternate group                : 1




网盘下载失效不补:链接: https://pan.baidu.com/s/1ayi-IHj1xxSUkG5pfJ0ULA
****此区域为收费内容****    需支付 15 金币后可查看立即购买


1.gif



.

上一篇:2019第10届台湾小姐泳装赛4号参赛者走秀 [2160/MP4/432MB]
下一篇:2019 韩国比基尼健美比赛现场实拍127 [2160/MP4/356MB]
回复

使用道具 举报

0

主题

925

帖子

2607

积分

4K家园VIP

Rank: 9Rank: 9Rank: 9

积分
2607
发表于 2019-7-9 13:52:15 | 显示全部楼层
求沙发
回复 支持 反对

使用道具 举报

0

主题

330

帖子

1889

积分

中级会员

Rank: 4

积分
1889
发表于 2019-7-9 20:07:21 | 显示全部楼层
谢谢分享!!!!!
回复

使用道具 举报

0

主题

314

帖子

2080

积分

4K家园VIP

Rank: 9Rank: 9Rank: 9

积分
2080
QQ
发表于 2019-7-9 20:49:27 | 显示全部楼层
老大辛苦了!!
回复 支持 反对

使用道具 举报

0

主题

8

帖子

49

积分

4K家园VIP

Rank: 9Rank: 9Rank: 9

积分
49
发表于 2019-7-9 22:24:12 | 显示全部楼层

感谢楼主分享,我默默顶一下,楼主再接再厉!
回复 支持 反对

使用道具 举报

0

主题

2

帖子

25

积分

新手上路

Rank: 1

积分
25
发表于 2019-7-10 08:55:22 | 显示全部楼层
长的不太好看。。。
回复 支持 反对

使用道具 举报

32

主题

1041

帖子

2903

积分

4K家园VIP

Rank: 9Rank: 9Rank: 9

积分
2903
发表于 7 天前 | 显示全部楼层
支持,赞一个
回复 支持 反对

使用道具 举报

0

主题

888

帖子

2676

积分

4K家园VIP

Rank: 9Rank: 9Rank: 9

积分
2676
发表于 6 天前 来自手机 | 显示全部楼层
大人,此事必有蹊跷!
回复 支持 反对

使用道具 举报

44

主题

1066

帖子

3048

积分

4K家园VIP

Rank: 9Rank: 9Rank: 9

积分
3048
发表于 6 天前 | 显示全部楼层
在撸一遍。。。
回复 支持 反对

使用道具 举报

47

主题

1102

帖子

3142

积分

4K家园VIP

Rank: 9Rank: 9Rank: 9

积分
3142
发表于 5 天前 | 显示全部楼层
多谢楼主分享
回复 支持 反对

使用道具 举报

您需要登录后才可以回帖 登录 | 立即注册

本版积分规则

精彩图文
关闭

站长推荐上一条 /2 下一条

4k家园   ©2019