[4K美女视频] 2019 韩国比基尼健美比赛现场实拍127 [2160/MP4/356MB]

[复制链接]

800

主题

883

帖子

5531

积分

超级版主

Rank: 8Rank: 8

积分
5531
 楼主| 发表于 6 天前 | 显示全部楼层 |阅读模式

韩国比基尼健美比赛现场实拍127.mp4_20190708_130604.573.jpg 韩国比基尼健美比赛现场实拍127.mp4_20190708_130610.327.jpg 韩国比基尼健美比赛现场实拍127.mp4_20190708_130614.658.jpg 韩国比基尼健美比赛现场实拍127.mp4_20190708_130625.703.jpg 韩国比基尼健美比赛现场实拍127.mp4.jpg

General
Complete name                  : D:\360安全浏览器下载\4K视频\韩国比基尼健美比赛现场实拍127.mp4
Format                         : MPEG-4
Format profile                 : Base Media
Codec ID                       : isom (isom/iso2/avc1/mp41)
File size                      : 356 MiB
Duration                       : 2 min 58 s
Overall bit rate               : 16.8 Mb/s
Writing application            : Lavf58.12.100

Video
ID                             : 1
Format                         : AVC
Format/Info                    : Advanced Video Codec
Format profile                 : [email protected]
Format settings                : CABAC / 4 Ref Frames
Format settings, CABAC         : Yes
Format settings, Reference fra : 4 frames
Codec ID                       : avc1
Codec ID/Info                  : Advanced Video Coding
Duration                       : 2 min 58 s
Bit rate                       : 16.0 Mb/s
Width                          : 3 840 pixels
Height                         : 2 160 pixels
Display aspect ratio           : 16:9
Frame rate mode                : Constant
Frame rate                     : 29.000 FPS
Color space                    : YUV
Chroma subsampling             : 4:2:0
Bit depth                      : 8 bits
Scan type                      : Progressive
Bits/(Pixel*Frame)             : 0.067
Stream size                    : 353 MiB (99%)
Writing library                : x264 core 148
Encoding settings              : cabac=1 / ref=3 / deblock=1:0:0 / analyse=0x3:0x113 / me=hex / subme=7 / psy=1 / psy_rd=1.00:0.00 / mixed_ref=1 / me_range=16 / chroma_me=1 / trellis=1 / 8x8dct=1 / cqm=0 / deadzone=21,11 / fast_pskip=1 / chroma_qp_offset=-2 / threads=6 / lookahead_threads=1 / sliced_threads=0 / nr=0 / decimate=1 / interlaced=0 / bluray_compat=0 / constrained_intra=0 / bframes=3 / b_pyramid=2 / b_adapt=1 / b_bias=0 / direct=1 / weightb=1 / open_gop=0 / weightp=2 / keyint=250 / keyint_min=25 / scenecut=40 / intra_refresh=0 / rc_lookahead=40 / rc=abr / mbtree=1 / bitrate=16000 / ratetol=1.0 / qcomp=0.60 / qpmin=0 / qpmax=69 / qpstep=4 / ip_ratio=1.40 / aq=1:1.00
Language                       : English
Codec configuration box        : avcC

Audio
ID                             : 2
Format                         : AAC LC
Format/Info                    : Advanced Audio Codec Low Complexity
Codec ID                       : mp4a-40-2
Duration                       : 2 min 58 s
Duration_LastFrame             : -4 ms
Bit rate mode                  : Constant
Bit rate                       : 129 kb/s
Channel(s)                     : 2 channels
Channel layout                 : L R
Sampling rate                  : 44.1 kHz
Frame rate                     : 43.066 FPS (1024 SPF)
Compression mode               : Lossy
Stream size                    : 2.74 MiB (1%)
Language                       : English
Default                        : Yes
Alternate group                : 1






网盘下载失效不补:链接: https://pan.baidu.com/s/1XxzBC1TVK3YqHCoYeYxgNg
****此区域为收费内容****    需支付 15 金币后可查看立即购买

1.gif



.

上一篇:2019高尔夫秀韩国模特-03 [2160/MP4/361MB]
下一篇:虎门商场时装周内衣秀4K珍藏版 [2160/MP4/1.08GB]
回复

使用道具 举报

0

主题

1242

帖子

3328

积分

4K家园VIP

Rank: 9Rank: 9Rank: 9

积分
3328
发表于 6 天前 | 显示全部楼层
纯粹路过,没任何兴趣,仅仅是看在老用户份上回复一下
回复 支持 反对

使用道具 举报

0

主题

14

帖子

72

积分

新手上路

Rank: 1

积分
72
发表于 6 天前 | 显示全部楼层
顶一下,加个赞,大家加油
回复 支持 反对

使用道具 举报

0

主题

314

帖子

2080

积分

4K家园VIP

Rank: 9Rank: 9Rank: 9

积分
2080
QQ
发表于 6 天前 | 显示全部楼层
支持老大了!!
回复 支持 反对

使用道具 举报

0

主题

914

帖子

2766

积分

4K家园VIP

Rank: 9Rank: 9Rank: 9

积分
2766
发表于 6 天前 | 显示全部楼层
感谢楼主的分享,还是阔以滴
回复 支持 反对

使用道具 举报

0

主题

931

帖子

2631

积分

4K家园VIP

Rank: 9Rank: 9Rank: 9

积分
2631
发表于 6 天前 | 显示全部楼层
前排,哇咔咔
回复 支持 反对

使用道具 举报

0

主题

719

帖子

2175

积分

4K家园VIP

Rank: 9Rank: 9Rank: 9

积分
2175
发表于 4 天前 | 显示全部楼层
楼下的接上
回复 支持 反对

使用道具 举报

38

主题

1089

帖子

3053

积分

4K家园VIP

Rank: 9Rank: 9Rank: 9

积分
3053
发表于 4 天前 | 显示全部楼层
一直在看
回复 支持 反对

使用道具 举报

您需要登录后才可以回帖 登录 | 立即注册

本版积分规则

精彩图文
关闭

站长推荐上一条 /2 下一条

4k家园   ©2019