[4K美女视频] 2019 花博亚洲动漫创作展黑丝袜兔宝宝 [2160/MP4/145MB]

[复制链接]

1229

主题

1375

帖子

9435

积分

超级版主

Rank: 8Rank: 8

积分
9435
 楼主| 发表于 2019-7-10 11:13:22 | 显示全部楼层 |阅读模式

花博亚洲动漫创作展黑丝袜兔宝宝.mp4_20190708_132320.493.jpg 花博亚洲动漫创作展黑丝袜兔宝宝.mp4_20190708_132325.816.jpg 花博亚洲动漫创作展黑丝袜兔宝宝.mp4_20190708_132330.729.jpg 花博亚洲动漫创作展黑丝袜兔宝宝.mp4_20190708_132343.168.jpg 花博亚洲动漫创作展黑丝袜兔宝宝.mp4.jpg

General
Complete name                  : 4K视频\2019花博亚洲动漫创作展黑丝袜兔宝宝.mp4
Format                         : MPEG-4
Format profile                 : Base Media
Codec ID                       : isom (isom/iso2/avc1/mp41)
File size                      : 146 MiB
Duration                       : 1 min 16 s
Overall bit rate               : 15.9 Mb/s
Writing application            : Lavf58.12.100

Video
ID                             : 1
Format                         : AVC
Format/Info                    : Advanced Video Codec
Format profile                 : High@L5.1
Format settings                : CABAC / 4 Ref Frames
Format settings, CABAC         : Yes
Format settings, Reference fra : 4 frames
Codec ID                       : avc1
Codec ID/Info                  : Advanced Video Coding
Duration                       : 1 min 16 s
Bit rate                       : 16.0 Mb/s
Width                          : 3 836 pixels
Height                         : 1 936 pixels
Display aspect ratio           : 1.981
Frame rate mode                : Constant
Frame rate                     : 29.000 FPS
Color space                    : YUV
Chroma subsampling             : 4:2:0
Bit depth                      : 8 bits
Scan type                      : Progressive
Bits/(Pixel*Frame)             : 0.074
Stream size                    : 144 MiB (99%)
Writing library                : x264 core 148
Encoding settings              : cabac=1 / ref=3 / deblock=1:0:0 / analyse=0x3:0x113 / me=hex / subme=7 / psy=1 / psy_rd=1.00:0.00 / mixed_ref=1 / me_range=16 / chroma_me=1 / trellis=1 / 8x8dct=1 / cqm=0 / deadzone=21,11 / fast_pskip=1 / chroma_qp_offset=-2 / threads=6 / lookahead_threads=1 / sliced_threads=0 / nr=0 / decimate=1 / interlaced=0 / bluray_compat=0 / constrained_intra=0 / bframes=3 / b_pyramid=2 / b_adapt=1 / b_bias=0 / direct=1 / weightb=1 / open_gop=0 / weightp=2 / keyint=250 / keyint_min=25 / scenecut=40 / intra_refresh=0 / rc_lookahead=40 / rc=abr / mbtree=1 / bitrate=16000 / ratetol=1.0 / qcomp=0.60 / qpmin=0 / qpmax=69 / qpstep=4 / ip_ratio=1.40 / aq=1:1.00
Language                       : English
Codec configuration box        : avcC

Audio
ID                             : 2
Format                         : AAC LC
Format/Info                    : Advanced Audio Codec Low Complexity
Codec ID                       : mp4a-40-2
Duration                       : 1 min 16 s
Bit rate mode                  : Constant
Bit rate                       : 129 kb/s
Channel(s)                     : 2 channels
Channel layout                 : L R
Sampling rate                  : 44.1 kHz
Frame rate                     : 43.066 FPS (1024 SPF)
Compression mode               : Lossy
Stream size                    : 1.18 MiB (1%)
Language                       : English
Default                        : Yes
Alternate group                : 1


网盘下载失效不补:链接: https://pan.baidu.com/s/1iCJXKGpD-O0gqK4o64O3eA
****此区域为收费内容****    需支付 15 金币后可查看立即购买

1.gif




上一篇:虎门商场时装周内衣秀4K珍藏版 [2160/MP4/1.08GB]
下一篇:2019美女模特韩国车展17 [2160/MP4/217MB]
回复

使用道具 举报

0

主题

973

帖子

2801

积分

4K家园VIP

Rank: 9Rank: 9Rank: 9

积分
2801
发表于 2019-7-10 11:13:31 来自手机 | 显示全部楼层
哈哈,我只看看不说话
回复 支持 反对

使用道具 举报

1

主题

454

帖子

3635

积分

4K家园VIP

Rank: 9Rank: 9Rank: 9

积分
3635
QQ
发表于 2019-7-10 11:33:06 | 显示全部楼层
期待已久的动漫展示了!!
回复 支持 反对

使用道具 举报

0

主题

728

帖子

2198

积分

4K家园VIP

Rank: 9Rank: 9Rank: 9

积分
2198
发表于 2019-7-10 12:56:54 | 显示全部楼层
顶顶更健康
回复 支持 反对

使用道具 举报

0

主题

20

帖子

2900

积分

4K家园VIP

Rank: 9Rank: 9Rank: 9

积分
2900
发表于 2019-7-10 13:17:41 | 显示全部楼层
我艹。丑哭了
回复 支持 反对

使用道具 举报

0

主题

987

帖子

2781

积分

4K家园VIP

Rank: 9Rank: 9Rank: 9

积分
2781
发表于 2019-7-10 14:19:39 | 显示全部楼层
感谢楼主发帖,前排顶起
回复 支持 反对

使用道具 举报

0

主题

21

帖子

182

积分

新手上路

Rank: 1

积分
182
发表于 2019-7-10 18:11:09 | 显示全部楼层
这是女的?!
回复

使用道具 举报

1

主题

1013

帖子

2847

积分

4K家园VIP

Rank: 9Rank: 9Rank: 9

积分
2847
发表于 2019-7-11 00:47:48 来自手机 | 显示全部楼层
顶起出售广告位
回复 支持 反对

使用道具 举报

44

主题

1105

帖子

3155

积分

4K家园VIP

Rank: 9Rank: 9Rank: 9

积分
3155
发表于 2019-7-11 17:46:41 | 显示全部楼层
站位支持
回复 支持 反对

使用道具 举报

0

主题

3

帖子

22

积分

新手上路

Rank: 1

积分
22
发表于 2019-7-14 16:34:26 | 显示全部楼层
服了,不修就把原片发上来,有没有摄影的职业底线?人家coser看了会怎么想?
回复 支持 反对

使用道具 举报

您需要登录后才可以回帖 登录 | 立即注册

本版积分规则

精彩图文
关闭

站长推荐上一条 /1 下一条

Archiver|手机版|TAG|Sitemap|新帖|专题|联系我们:邮箱: 4kjia.com@gmail.com   

4k家园   ©2019