[4K电影] 埋葬 / Burial (2022) 4K高清版本下载

[复制链接]

2327

主题

2476

帖子

1万

积分

超级版主

Rank: 8Rank: 8

积分
17940
 楼主| 发表于 2022-9-2 14:47:23 | 显示全部楼层 |阅读模式
QQ图片20220902142349_副本.png

◎标  题 埋葬
◎片  名 Burial
◎年  代 2022
◎产  地 英国
◎类  别 惊悚
◎语  言 英语
◎上映日期 2022-09-02(美国)
◎IMDb评分 6.7/10 from 25 users 更新 : 2022-09-02
◎IMDb链接 https://www.imdb.com/title/tt13063384/
◎豆瓣评分 0/10 from 0 users
◎豆瓣链接 https://movie.douban.com/subject/35208094/
◎片  长 95分钟
◎导  演 本·帕克 Ben Parker
◎编  剧 本·帕克 Ben Parker
◎演  员 汤姆·费尔顿 Tom Felton
                   哈丽特·瓦尔特 Harriet Walter
                   夏洛特·维加 Charlotte Vega
                   巴里·沃德 Barry Ward
                   比尔·米尔纳 Bill Milner
                   丹·伦顿·斯金纳 Dan Renton Skinner
                   Kristjan Üksküla KristjanÜksküla
                   戴维·亚历山大 David Alexander
                   尼尔·墨菲 Niall Murphy  
                   埃斯特·昆图 Ester Kuntu
                   小亨德里克·图姆佩尔 Hendrik Toompere Jr. Jr.
                   巴什卡·福雷斯特 Bashka Forrest



◎简  介

  一小群俄罗斯士兵的任务是将希特勒发现的遗骸带回莫斯科的斯大林。

Video
ID : 1
Format : HEVC
Format/Info : High Efficiency Video Coding
Format profile : Main 10@L5@High
Codec ID : V_MPEGH/ISO/HEVC
Duration : 1 h 34 min
Bit rate : 11.9 Mb/s
Width : 3 832 pixels
Height : 1 596 pixels
Display aspect ratio : 2.40:1
Frame rate mode : Constant
Frame rate : 24.000 FPS
Color space : YUV
Chroma subsampling : 4:2:0
Bit depth : 10 bits
Bits/(Pixel*Frame) : 0.081
Stream size : 7.86 GiB (97%)
Language : English
Default : Yes
Forced : No
Color range : Limited
Color primaries : BT.709
Transfer characteristics : BT.709
Matrix coefficients : BT.709

Audio
ID : 2
Format : AC-3
Format/Info : Audio Coding 3
Commercial name : Dolby Digital
Codec ID : A_AC3
Duration : 1 h 34 min
Bit rate mode : Constant
Bit rate : 384 kb/s
Channel(s) : 6 channels
Channel layout : L R C LFE Ls Rs
Sampling rate : 48.0 kHz
Frame rate : 31.250 FPS (1536 SPF)
Compression mode : Lossy
Stream size : 259 MiB (3%)
Language : English
Service kind : Complete Main
Default : Yes
Forced : No

Text #1
ID : 3
Format : UTF-8
Codec ID : S_TEXT/UTF8
Codec ID/Info : UTF-8 Plain Text
Duration : 34 min 2 s
Bit rate : 1 b/s
Frame rate : 0.006 FPS
Count of elements : 12
Stream size : 333 Bytes (0%)
Title : Forced
Language : English
Default : Yes
Forced : Yes

Text #2
ID : 4
Format : UTF-8
Codec ID : S_TEXT/UTF8
Codec ID/Info : UTF-8 Plain Text
Duration : 1 h 33 min
Bit rate : 45 b/s
Frame rate : 0.219 FPS
Count of elements : 1231
Stream size : 31.4 KiB (0%)
Title : SDH
Language : English
Default : No
Forced : No

Text #3
ID : 5
Format : UTF-8
Codec ID : S_TEXT/UTF8
Codec ID/Info : UTF-8 Plain Text
Duration : 1 h 32 min
Bit rate : 40 b/s
Frame rate : 0.183 FPS
Count of elements : 1019
Stream size : 27.5 KiB (0%)
Language : English
Default : No
Forced : No

Menu
00:00:00.000 : Chapter 01
00:10:03.330 : Chapter 02
00:20:37.950 : Chapter 03
00:30:18.080 : Chapter 04
00:39:55.500 : Chapter 05
00:49:36.120 : Chapter 06
01:00:06.250 : Chapter 07
01:10:21.040 : Chapter 08
01:21:14.870 : Chapter 09
01:29:01.370 : Chapter 10


资源速度为零或资源敏感被和谐时,推荐使用qBittorrent等下载软件,有条件的推荐115更好的下载软件!

下载地址:


游客,如果您要查看本帖隐藏内容请回复





上一篇:[纪录片] 海洋视野:海洋中的森林 50fps (2017)4K高清版本下载
下一篇:先驱者 / The Harbinger‎ (2022) 4K高清版本下载
回复

使用道具 举报

1

主题

1358

帖子

4092

积分

4K家园VIP

Rank: 9Rank: 9Rank: 9

积分
4092
发表于 2022-9-2 14:47:27 来自手机 | 显示全部楼层
顶起出售广告位
回复 支持 反对

使用道具 举报

2

主题

1468

帖子

4240

积分

4K家园VIP

Rank: 9Rank: 9Rank: 9

积分
4240
发表于 2022-9-2 14:47:27 | 显示全部楼层
珍爱生命,果断回帖。
回复 支持 反对

使用道具 举报

0

主题

1

帖子

6

积分

新手上路

Rank: 1

积分
6
发表于 2022-9-2 19:23:42 | 显示全部楼层
hahahahahahahahahaha
回复 支持 反对

使用道具 举报

0

主题

1742

帖子

4740

积分

4K家园VIP

Rank: 9Rank: 9Rank: 9

积分
4740
发表于 2022-9-3 00:39:49 | 显示全部楼层
我擦!我要沙发!
回复 支持 反对

使用道具 举报

2

主题

1684

帖子

4670

积分

4K家园VIP

Rank: 9Rank: 9Rank: 9

积分
4670
发表于 2022-9-3 05:45:37 来自手机 | 显示全部楼层
感谢分享
回复 支持 反对

使用道具 举报

4

主题

1736

帖子

4828

积分

4K家园VIP

Rank: 9Rank: 9Rank: 9

积分
4828
发表于 2022-9-3 06:40:16 | 显示全部楼层
大人,此事必有蹊跷!
回复 支持 反对

使用道具 举报

0

主题

55

帖子

780

积分

新手上路

Rank: 1

积分
780
发表于 2022-9-8 21:36:48 | 显示全部楼层
看禁闻http://v.ht/tttd 点击访问
回复

使用道具 举报

您需要登录后才可以回帖 登录 | 立即注册

本版积分规则

精彩图文
Archiver|手机版|TAG|Sitemap|新帖|专题|联系我们:邮箱: 4kjia.com@gmail.com   

4k家园   ©2019