[4K电影] 交易室 / Wire Room‎ (2022) 4K高清版本下载

[复制链接]

2333

主题

2482

帖子

1万

积分

超级版主

Rank: 8Rank: 8

积分
17979
 楼主| 发表于 2022-9-2 15:27:20 | 显示全部楼层 |阅读模式
QQ图片20220902142508_副本.png

◎标  题 交易室
◎译  名 监侦危机 / 监侦室 / 监视危机
◎片  名 Wire Room
◎年  代 2022
◎产  地 美国
◎类  别 动作 / 犯罪
◎语  言 英语
◎上映日期 2022-09-02(美国)
◎IMDb评分 0/10 from 0 users
◎IMDb链接 https://www.imdb.com/title/tt16527290/
◎豆瓣评分 0/10 from 0 users
◎豆瓣链接 https://movie.douban.com/subject/35718110/
◎片  长 95分钟
◎导  演 马特·伊斯坎达里 Matt Eskandari
◎编  剧 布兰登·斯蒂弗 Brandon Stiefer
◎演  员 布鲁斯·威利斯 Bruce Willis
       凯文·狄龙 Kevin Dillon
       奥利弗·特雷韦纳 Oliver Trevena
                   Texas Battle Texas Battle
                   谢尔比·科布 Shelby Cobb
                   约翰·D·希克曼 John D. Hickman
                   拉肯·伍德沃德 Larken Woodward
                   安珀·汤森 Amber Townsend
                   亚当·休尔·波特 Adam Huel Potter
                   MWW迈克尔·威尔克森 MWW Michael Wilkerson
                   Faith Stowers Faith Stowers
                   布拉德福德·诺里斯 Bradford Norris
                   莎拉·舒勒 Sarah Schueler
                   马蒂·邓肯 Martie Duncan
                   布拉德·明顿 Brad Mintun


◎简  介

  在执行线控室任务时,一名联邦特工监听目标在家中被一支突击队袭击。在不烧线的情况下,他必须保护调查和目标的生命不受50英里外房间的限制。

Video
ID : 1
Format : HEVC
Format/Info : High Efficiency Video Coding
Format profile : Main 10@L5@High
Codec ID : V_MPEGH/ISO/HEVC
Duration : 1 h 36 min
Bit rate : 11.9 Mb/s
Width : 3 832 pixels
Height : 1 908 pixels
Display aspect ratio : 2.008
Frame rate mode : Constant
Frame rate : 23.976 FPS
Color space : YUV
Chroma subsampling : 4:2:0
Bit depth : 10 bits
Bits/(Pixel*Frame) : 0.068
Stream size : 8.06 GiB (97%)
Language : English
Default : Yes
Forced : No
Color range : Limited
Color primaries : BT.709
Transfer characteristics : BT.709
Matrix coefficients : BT.709

Audio
ID : 2
Format : AC-3
Format/Info : Audio Coding 3
Commercial name : Dolby Digital
Codec ID : A_AC3
Duration : 1 h 36 min
Bit rate mode : Constant
Bit rate : 384 kb/s
Channel(s) : 6 channels
Channel layout : L R C LFE Ls Rs
Sampling rate : 48.0 kHz
Frame rate : 31.250 FPS (1536 SPF)
Compression mode : Lossy
Stream size : 265 MiB (3%)
Language : English
Service kind : Complete Main
Default : Yes
Forced : No

Text #1
ID : 3
Format : UTF-8
Codec ID : S_TEXT/UTF8
Codec ID/Info : UTF-8 Plain Text
Duration : 1 h 32 min
Bit rate : 67 b/s
Frame rate : 0.251 FPS
Count of elements : 1386
Stream size : 45.5 KiB (0%)
Title : SDH
Language : English
Default : No
Forced : No

Text #2
ID : 4
Format : UTF-8
Codec ID : S_TEXT/UTF8
Codec ID/Info : UTF-8 Plain Text
Duration : 1 h 30 min
Bit rate : 64 b/s
Frame rate : 0.229 FPS
Count of elements : 1242
Stream size : 42.4 KiB (0%)
Language : English
Default : No
Forced : No

Menu
00:00:00.000 : Chapter 01
00:03:12.067 : Chapter 02
00:17:26.546 : Chapter 03
00:31:32.267 : Chapter 04
00:45:21.680 : Chapter 05
00:59:23.355 : Chapter 06
01:13:15.729 : Chapter 07
01:22:11.222 : Chapter 08
01:32:42.562 : Chapter 09

资源速度为零或资源敏感被和谐时,推荐使用qBittorrent等下载软件,有条件的推荐115更好的下载软件!

下载地址:


游客,如果您要查看本帖隐藏内容请回复







上一篇:先驱者 / The Harbinger‎ (2022) 4K高清版本下载
下一篇:静水城 / Stillwater (2021) 4K高清版本下载
回复

使用道具 举报

3

主题

1216

帖子

3662

积分

4K家园VIP

Rank: 9Rank: 9Rank: 9

积分
3662
发表于 2022-9-2 15:27:24 来自手机 | 显示全部楼层
分享的不错,希望楼主继续分享
回复 支持 反对

使用道具 举报

0

主题

2

帖子

13

积分

新手上路

Rank: 1

积分
13
发表于 2022-9-2 19:47:17 | 显示全部楼层

分享的不错,希望楼主继续分享
回复 支持 反对

使用道具 举报

44

主题

1497

帖子

4335

积分

4K家园VIP

Rank: 9Rank: 9Rank: 9

积分
4335
发表于 2022-9-3 20:34:14 | 显示全部楼层
very good
回复 支持 反对

使用道具 举报

0

主题

2

帖子

31

积分

新手上路

Rank: 1

积分
31
发表于 2022-9-4 06:29:18 | 显示全部楼层
感谢楼主分享
回复 支持 反对

使用道具 举报

0

主题

107

帖子

645

积分

新手上路

Rank: 1

积分
645
发表于 2022-9-5 09:16:29 | 显示全部楼层
分享的不错
回复 支持 反对

使用道具 举报

1

主题

1380

帖子

3972

积分

4K家园VIP

Rank: 9Rank: 9Rank: 9

积分
3972
发表于 2022-9-5 17:05:11 | 显示全部楼层
路过
回复 支持 反对

使用道具 举报

4

主题

1679

帖子

4607

积分

4K家园VIP

Rank: 9Rank: 9Rank: 9

积分
4607
发表于 2022-9-8 01:50:57 | 显示全部楼层
4K家园资源不错,前排支持
回复 支持 反对

使用道具 举报

0

主题

140

帖子

782

积分

4K家园VIP

Rank: 9Rank: 9Rank: 9

积分
782
发表于 2022-9-9 13:00:06 | 显示全部楼层
让 江小白 来看看帖子里藏了啥好东西~~~
回复 支持 反对

使用道具 举报

46

主题

1483

帖子

4285

积分

4K家园VIP

Rank: 9Rank: 9Rank: 9

积分
4285
发表于 2022-9-17 06:48:41 来自手机 | 显示全部楼层
这么强,支持楼主,佩服
回复 支持 反对

使用道具 举报

您需要登录后才可以回帖 登录 | 立即注册

本版积分规则

精彩图文
Archiver|手机版|TAG|Sitemap|新帖|专题|联系我们:邮箱: 4kjia.com@gmail.com   

4k家园   ©2019